<?xml version="1.0" standalone="no"?>
<!DOCTYPE svg PUBLIC "-//W3C//DTD SVG 1.1//EN" "http://www.w3.org/Graphics/SVG/1.1/DTD/svg11.dtd" >
<svg xmlns="http://www.w3.org/2000/svg" xmlns:xlink="http://www.w3.org/1999/xlink" version="1.1">
<metadata></metadata>
<defs>
<font id="klavika_lightplain" horiz-adv-x="1067" >
<font-face units-per-em="2048" ascent="1638" descent="-410" />
<missing-glyph horiz-adv-x="450" />
<glyph unicode="&#xfb01;" horiz-adv-x="1198" d="M72 895v102h186v209q0 120 68 180t190 60q107 0 205 -31l-16 -92q-102 20 -181 20q-83 0 -115 -34t-32 -117v-195h647v-997h-119v895h-528v-895h-119v895h-186zM905 1186v219h119v-219h-119z" />
<glyph unicode="&#xfb02;" horiz-adv-x="1198" d="M72 895v102h186v209q0 120 68 180t190 60q100 0 195 -29l-17 -92q-90 18 -170 18q-83 0 -115 -34t-32 -117v-195h297l-12 -102h-285v-895h-119v895h-186zM905 0v1405l119 16v-1421h-119z" />
<glyph horiz-adv-x="0" />
<glyph horiz-adv-x="682" />
<glyph unicode=" "  horiz-adv-x="450" />
<glyph unicode="&#x09;" horiz-adv-x="450" />
<glyph unicode="&#xa0;" horiz-adv-x="450" />
<glyph unicode="!" horiz-adv-x="516" d="M195 0v176h127v-176h-127zM199 694v711h118v-711l-24 -344h-70z" />
<glyph unicode="&#x22;" horiz-adv-x="724" d="M154 905v500h104v-500h-104zM467 905v500h104v-500h-104z" />
<glyph unicode="#" horiz-adv-x="1472" d="M123 367l6 100h279l20 420h-278l6 100h278l19 336h108l-18 -336h399l19 336h108l-18 -336h278l-6 -100h-279l-20 -420h279l-7 -100h-278l-19 -367h-108l18 367h-399l-18 -367h-109l18 367h-278zM516 467h399l21 420h-399z" />
<glyph unicode="$" horiz-adv-x="1046" d="M143 41l21 96q170 -51 348 -51q63 0 107.5 5t75 18t48 29t27 46t12 59.5t2.5 78.5q0 43 -0.5 62t-4.5 47.5t-10 40.5t-21.5 31.5t-33.5 29t-51 25.5t-70.5 29t-94.5 31q-53 17 -92.5 31t-74.5 29.5t-58.5 27t-44 29t-32.5 29.5t-21.5 34.5t-13.5 38.5t-7 47t-3.5 54.5 t-0.5 65.5q0 91 14.5 149t53 101t106 63t174.5 24v205h114v-205q172 -7 277 -34l-15 -101q-178 31 -323 31q-65 0 -104 -2.5t-74.5 -11.5t-53 -23.5t-30.5 -42.5t-17 -64.5t-4 -93.5v-62t4.5 -47t7.5 -37t16.5 -28t24 -23.5t37 -19t49 -20.5t66.5 -23q83 -28 136.5 -47 t103.5 -42t77 -38.5t51.5 -40.5t34 -44t17.5 -54t9 -66t1 -83q0 -125 -28.5 -195.5t-100 -106t-203.5 -40.5v-205h-114v205q-181 7 -314 59z" />
<glyph unicode="%" horiz-adv-x="1726" d="M113 909v205q0 270 293 270q290 0 290 -270v-205q0 -270 -290 -270q-293 0 -293 270zM215 907q0 -89 44 -133.5t147 -44.5t145.5 44.5t42.5 133.5v209q0 89 -42.5 133.5t-145.5 44.5t-147 -44.5t-44 -133.5v-209zM537 14l559 1370l90 -36l-559 -1368zM1020 250v205 q0 270 293 270q291 0 291 -270v-205q0 -270 -291 -270q-293 0 -293 270zM1122 248q0 -89 44 -133.5t147 -44.5t145.5 44.5t42.5 133.5v209q0 89 -42.5 133.5t-145.5 44.5t-147 -44.5t-44 -133.5v-209z" />
<glyph unicode="&#x26;" horiz-adv-x="1263" d="M174 301v131q0 94 50.5 167t137.5 91q-85 31 -120 89.5t-35 146.5v166q0 292 383 292q79 0 183.5 -13.5t180.5 -33.5l-14 -100q-198 41 -354 41q-137 0 -198.5 -43.5t-61.5 -142.5v-177q0 -82 53.5 -129t157.5 -47h645v-106h-201v-598q-187 -55 -381 -55q-230 0 -328 75 t-98 246zM293 307q0 -125 64.5 -174t238.5 -49q137 0 270 31v518h-307q-266 0 -266 -213v-113z" />
<glyph unicode="'" horiz-adv-x="411" d="M154 905v500h104v-500h-104z" />
<glyph unicode="(" horiz-adv-x="616" d="M154 623q0 253 78 481.5t237 456.5l86 -60q-161 -254 -222 -451t-61 -427t61 -427.5t222 -451.5l-86 -59q-159 228 -237 456.5t-78 481.5z" />
<glyph unicode=")" horiz-adv-x="616" d="M61 -256q161 254 222 451.5t61 427.5t-61 427t-222 451l86 60q159 -228 237.5 -456.5t78.5 -481.5t-78.5 -481.5t-237.5 -456.5z" />
<glyph unicode="*" horiz-adv-x="976" d="M113 1053v75h307l-168 258l63 41l172 -266l172 266l64 -41l-168 -258h309v-75h-307l168 -256l-63 -41l-175 268l-174 -268l-63 41l166 256h-303z" />
<glyph unicode="+" horiz-adv-x="1097" d="M133 444v107h359v364h114v-364h359v-107h-359v-364h-114v364h-359z" />
<glyph unicode="," horiz-adv-x="493" d="M154 -197l73 197h-45v176h127v-176l-98 -221z" />
<glyph unicode="-" horiz-adv-x="741" d="M133 524v101h475v-101h-475z" />
<glyph unicode="." horiz-adv-x="495" d="M184 0v176h127v-176h-127z" />
<glyph unicode="/" horiz-adv-x="901" d="M133 -240l504 1624h121l-506 -1624h-119z" />
<glyph unicode="0" horiz-adv-x="1146" d="M164 330v663q0 350 409 350q215 0 312.5 -93t97.5 -257v-663q0 -164 -97.5 -257t-312.5 -93q-409 0 -409 350zM283 338q0 -131 64 -191.5t226 -60.5t226.5 60.5t64.5 191.5v647q0 131 -64.5 191.5t-226.5 60.5t-226 -60.5t-64 -191.5v-647z" />
<glyph unicode="1" horiz-adv-x="667" d="M20 1124l347 199h106v-1323h-119v1182l-276 -156z" />
<glyph unicode="2" horiz-adv-x="991" d="M109 0v106q309 384 374 469q72 93 105 138t66 99t44 93t11 82v33q0 64 -8.5 100.5t-37.5 65.5t-84 40t-147 11q-142 0 -289 -47l-22 102q59 21 149 36t174 15q117 0 193.5 -20.5t117.5 -64t56.5 -98.5t15.5 -136v-31q0 -105 -46 -190.5t-203 -294.5q-58 -78 -101 -132.5 t-109 -136t-108 -133.5h578v-106h-729z" />
<glyph unicode="3" horiz-adv-x="1005" d="M113 20l18 103q154 -37 295 -37q161 0 229 42.5t68 160.5v131q0 192 -231 192h-275v107h262q111 0 165 48.5t54 137.5v146q0 102 -55.5 144t-189.5 42q-130 0 -297 -31l-17 103q159 34 310 34q194 0 281 -70.5t87 -213.5v-144q0 -98 -35.5 -154.5t-128.5 -92.5 q89 -20 139 -79.5t50 -160.5v-147q0 -160 -102.5 -230.5t-317.5 -70.5q-168 0 -309 40z" />
<glyph unicode="4" horiz-adv-x="1105" d="M61 356v127l601 840h159v-864h203v-103h-203v-356h-119v356h-641zM176 459h526v741z" />
<glyph unicode="5" horiz-adv-x="1013" d="M133 25l21 98q137 -37 313 -37q162 0 223.5 50.5t61.5 180.5v89q0 121 -49.5 170.5t-186.5 52.5q-55 1 -168 2t-164 2v690h676v-106h-557v-478q48 -1 120 -2t116 -2q177 -3 254 -84.5t77 -228.5v-113q0 -110 -36 -180t-126.5 -109.5t-240.5 -39.5q-205 0 -334 45z" />
<glyph unicode="6" horiz-adv-x="1060" d="M164 305v578q0 127 23 211t80.5 141.5t153.5 82.5t243 25q135 0 233 -28l-14 -101q-102 23 -199 23q-87 0 -148.5 -7t-107 -25.5t-73 -44t-44 -67.5t-22.5 -91t-6 -121v-197q51 21 137 37t155 16q196 0 274.5 -78.5t78.5 -240.5v-113q0 -161 -87 -243t-290 -82 q-204 0 -295.5 82.5t-91.5 242.5zM283 301q0 -120 67.5 -167.5t200.5 -47.5q144 0 201 48.5t57 166.5v123q0 75 -19 118t-71.5 66t-147.5 23q-140 0 -288 -62v-268z" />
<glyph unicode="7" horiz-adv-x="874" d="M61 1217v106h766v-100l-573 -1223h-121l574 1217h-646z" />
<glyph unicode="8" horiz-adv-x="1134" d="M154 295v41q0 119 60 195.5t212 144.5q-133 61 -185.5 139.5t-52.5 181.5v27q0 319 379 319t379 -319v-27q0 -112 -51.5 -185.5t-189.5 -135.5q154 -68 215 -144.5t61 -195.5v-41q0 -165 -98 -240t-316 -75t-315.5 75t-97.5 240zM272 301q0 -121 65.5 -168t229.5 -47 t229.5 47t65.5 168v41q0 52 -13 87.5t-50.5 67.5t-88 57.5t-143.5 63.5q-176 -70 -235.5 -123t-59.5 -153v-41zM307 989q0 -90 53.5 -142t206.5 -118q155 67 207.5 117.5t52.5 142.5v51q0 98 -58.5 147.5t-201.5 49.5t-201.5 -49t-58.5 -148v-51z" />
<glyph unicode="9" horiz-adv-x="1050" d="M123 905v113q0 160 89 242.5t288 82.5q205 0 296 -81t91 -244v-578q0 -128 -22 -211t-79 -141t-153.5 -83t-245.5 -25q-128 0 -233 30l14 101q110 -25 199 -25t152 7t108.5 25.5t72.5 43.5t42.5 68t20.5 91t5 121v197q-51 -21 -137.5 -37t-155.5 -16q-196 0 -274 78.5 t-78 240.5zM242 899q0 -113 49 -160t188 -47q141 0 289 62v268q0 120 -67.5 167.5t-200.5 47.5q-144 0 -201 -48.5t-57 -166.5v-123z" />
<glyph unicode=":" horiz-adv-x="495" d="M184 0v176h127v-176h-127zM184 655v176h127v-176h-127z" />
<glyph unicode=";" horiz-adv-x="493" d="M154 -197l73 197h-45v176h127v-176l-98 -221zM182 655v176h127v-176h-127z" />
<glyph unicode="&#x3c;" horiz-adv-x="1126" d="M102 457v86l816 475l51 -86l-748 -432l752 -434l-51 -86z" />
<glyph unicode="=" horiz-adv-x="1042" d="M164 281v96h715v-96h-715zM164 633v96h715v-96h-715z" />
<glyph unicode="&#x3e;" horiz-adv-x="1126" d="M154 66l751 434l-747 432l51 86l815 -475v-86l-819 -477z" />
<glyph unicode="?" horiz-adv-x="937" d="M123 1391q139 34 299 34q79 0 137.5 -8.5t100 -28.5t68 -47t41.5 -70t20.5 -91t5.5 -115q0 -97 -4.5 -147t-27 -99.5t-58 -84t-107.5 -91.5q-42 -33 -109.5 -87.5t-103.5 -82.5l-70 90q164 128 224 178q36 31 56 49t37.5 41.5t24.5 39.5t12.5 48t6 60t0.5 82 q0 57 -2.5 91t-12 66.5t-26 49t-46 29.5t-70.5 17.5t-101 4.5q-126 0 -275 -31zM315 0v197h127v-197h-127z" />
<glyph unicode="@" horiz-adv-x="1538" d="M133 682q0 203 86 364t235.5 249.5t333.5 88.5q148 0 266 -42.5t194 -118t116.5 -178t40.5 -224.5q0 -185 -91.5 -295t-266.5 -110q-105 0 -162 63q-112 -57 -213 -57q-86 0 -121.5 47t-22.5 125l39 229q18 100 68.5 142.5t163.5 42.5q50 0 122 -15t119 -37l-75 -434 q36 -18 82 -18q68 0 118.5 24.5t80 68t43.5 98.5t14 122q0 225 -136 349t-379 124q-152 0 -277 -74.5t-199 -214.5t-74 -319q0 -136 38 -246t113.5 -191t195 -125t275.5 -44q195 0 397 88l31 -82q-185 -102 -428 -102q-338 0 -532.5 190t-194.5 512zM623 588q-8 -46 7 -62 t66 -16q38 0 90 18t88 43l58 326q-87 23 -146 23t-86 -22t-36 -75q-6 -40 -20.5 -117.5t-20.5 -117.5z" />
<glyph unicode="A" horiz-adv-x="1271" d="M72 0l475 1364h178l475 -1364h-119l-129 358h-635l-127 -358h-118zM354 463h561l-280 831z" />
<glyph unicode="B" horiz-adv-x="1144" d="M184 0v1364h512q140 0 216.5 -67.5t76.5 -200.5v-164q0 -83 -36.5 -137t-118.5 -84q84 -11 141 -78t57 -176v-178q0 -136 -87 -207.5t-226 -71.5h-535zM305 106h416q95 0 142.5 45t47.5 128v174q0 90 -55.5 141t-169.5 51h-381v-539zM305 752h352q108 0 159.5 50 t51.5 136v174q0 145 -170 145h-393v-505z" />
<glyph unicode="C" horiz-adv-x="1046" d="M154 375v614q0 197 106 296t346 99q175 0 328 -30l-14 -105q-155 27 -304 27q-187 0 -264.5 -65t-77.5 -224v-610q0 -159 77.5 -224t264.5 -65q149 0 304 27l14 -105q-153 -30 -328 -30q-240 0 -346 99t-106 296z" />
<glyph unicode="D" horiz-adv-x="1208" d="M184 0v1364h451q121 0 206 -29.5t132 -86t67.5 -126.5t20.5 -161v-558q0 -91 -20.5 -161t-67.5 -126.5t-132 -86t-206 -29.5h-451zM305 109h332q167 0 235 68.5t68 219.5v570q0 151 -68 219.5t-235 68.5h-332v-1146z" />
<glyph unicode="E" horiz-adv-x="1097" d="M184 0v1364h768v-109h-647v-505h602v-109h-602v-532h649v-109h-770z" />
<glyph unicode="F" horiz-adv-x="1046" d="M184 0v1364h777v-109h-656v-526h610v-108h-610v-621h-121z" />
<glyph unicode="G" horiz-adv-x="1169" d="M154 377v610q0 199 105 298t347 99q215 0 375 -36l-12 -105q-211 33 -361 33q-188 0 -261 -66t-73 -225v-606q0 -157 69 -224t255 -67q157 0 287 31v483h121v-565q-196 -57 -416 -57q-123 0 -208 25.5t-135 78t-71.5 123.5t-21.5 170z" />
<glyph unicode="H" horiz-adv-x="1269" d="M184 0v1364h121v-608h660v608h120v-1364h-120v647h-660v-647h-121z" />
<glyph unicode="I" horiz-adv-x="509" d="M195 0v1364h120v-1364h-120z" />
<glyph unicode="J" horiz-adv-x="479" d="M-20 -309q108 106 145 149t48 72.5t11 87.5v1364h121v-1352q0 -56 -3 -85.5t-16 -63.5t-37.5 -63t-69 -75.5t-109.5 -109.5q-7 -6 -11 -10z" />
<glyph unicode="K" horiz-adv-x="1165" d="M184 0v1364h121v-1364h-121zM352 694l543 670h149l-546 -670l585 -694h-151z" />
<glyph unicode="L" horiz-adv-x="1011" d="M184 0v1364h121v-1255h615v-109h-736z" />
<glyph unicode="M" horiz-adv-x="1628" d="M174 0l41 1364h176l424 -1114l422 1114h176l41 -1364h-121l-28 1243l-398 -1067h-186l-397 1067l-29 -1243h-121z" />
<glyph unicode="N" horiz-adv-x="1306" d="M184 0v1364h176l648 -1247v1247h114v-1364h-176l-647 1245v-1245h-115z" />
<glyph unicode="O" horiz-adv-x="1261" d="M154 385v594q0 90 26 162t81 127.5t148.5 85.5t221.5 30t221.5 -30t148.5 -85.5t81 -127.5t26 -162v-594q0 -90 -26 -162t-81 -127.5t-148.5 -85.5t-221.5 -30t-221.5 30t-148.5 85.5t-81 127.5t-26 162zM274 389q0 -151 83 -226t274 -75t273.5 75t82.5 226v586 q0 151 -82.5 226t-273.5 75t-274 -75t-83 -226v-586z" />
<glyph unicode="P" horiz-adv-x="1114" d="M184 0v1364h463q375 0 375 -315v-213q0 -316 -375 -316h-342v-520h-121zM305 629h344q131 0 191.5 48t60.5 159v213q0 111 -60.5 158.5t-191.5 47.5h-344v-626z" />
<glyph unicode="Q" horiz-adv-x="1261" d="M154 385v594q0 90 26 162t81 127.5t148.5 85.5t221.5 30t221.5 -30t148.5 -85.5t81 -127.5t26 -162v-594q0 -163 -85.5 -266.5t-270.5 -130.5l118 -273l-110 -47l-135 312q-126 1 -219 31t-147 85.5t-79.5 127t-25.5 161.5zM274 389q0 -151 83 -226t274 -75t273.5 75 t82.5 226v586q0 151 -82.5 226t-273.5 75t-274 -75t-83 -226v-586z" />
<glyph unicode="R" horiz-adv-x="1267" d="M184 0v1364h484q374 0 374 -315v-209q0 -245 -221 -299l365 -541h-137l-355 524h-26h-363v-524h-121zM305 633h365q131 0 191.5 48t60.5 159v209q0 111 -60.5 158.5t-191.5 47.5h-365v-622z" />
<glyph unicode="S" horiz-adv-x="1114" d="M154 45l22 98q183 -55 367 -55q171 0 234 55t63 189v58t-2.5 47.5t-6 40.5t-12 31.5t-18 27.5t-28 21.5t-38.5 20.5t-52 17.5t-65.5 19t-82.5 19.5q-86 20 -142 37t-99.5 42t-66 50.5t-37 69t-18.5 90t-4 120.5q0 88 18.5 148t65 105t130 66t210.5 21q192 0 352 -47 l-14 -102q-178 41 -334 41q-101 0 -162 -12t-93 -43t-42 -71.5t-10 -109.5v-60.5t3 -49t5.5 -40t12.5 -31.5t17.5 -26.5t27.5 -21t37 -19.5t50 -17t62 -18.5t78 -19.5q70 -18 119.5 -32t91 -32t67 -33t46 -39.5t30.5 -46t16 -58.5t7.5 -70.5t1.5 -87.5q0 -89 -17.5 -151 t-63 -111t-130 -72.5t-211.5 -23.5q-216 0 -385 65z" />
<glyph unicode="T" horiz-adv-x="1062" d="M51 1255v109h961v-109h-420v-1255h-121v1255h-420z" />
<glyph unicode="U" horiz-adv-x="1290" d="M174 387v977h121v-977q0 -144 89.5 -221.5t260.5 -77.5t260.5 77.5t89.5 221.5v977h121v-977q0 -89 -27.5 -161.5t-83 -128t-147.5 -86.5t-213 -31t-213 31t-147.5 86.5t-83 128t-27.5 161.5z" />
<glyph unicode="V" horiz-adv-x="1208" d="M41 1364h119l444 -1255l445 1255h118l-481 -1364h-164z" />
<glyph unicode="W" horiz-adv-x="1822" d="M51 1364h117l342 -1272l305 1272h193l305 -1272l342 1272h117l-369 -1364h-189l-303 1278l-303 -1278h-188z" />
<glyph unicode="X" horiz-adv-x="1187" d="M72 0l456 692l-442 672h131l377 -576l377 576h131l-443 -672l457 -692h-131l-391 596l-391 -596h-131z" />
<glyph unicode="Y" horiz-adv-x="1112" d="M31 1364h125l399 -823l401 823h125l-465 -944v-420h-120v420z" />
<glyph unicode="Z" horiz-adv-x="1179" d="M143 0v109l744 1146h-723v109h858v-109l-746 -1146h760v-109h-893z" />
<glyph unicode="[" horiz-adv-x="636" d="M205 -258v1876h370v-111h-251v-1654h251v-111h-370z" />
<glyph unicode="\" horiz-adv-x="901" d="M143 1384h121l504 -1624h-119z" />
<glyph unicode="]" horiz-adv-x="636" d="M61 -147h252v1654h-252v111h371v-1876h-371v111z" />
<glyph unicode="^" horiz-adv-x="929" d="M102 834l297 571h131l297 -571l-96 -54l-266 514l-266 -514z" />
<glyph unicode="_" horiz-adv-x="888" d="M8 -20h873v-54h-873v54z" />
<glyph unicode="`" horiz-adv-x="634" d="M154 1288l59 90q119 -84 268 -176l-55 -84q-158 88 -272 170z" />
<glyph unicode="a" horiz-adv-x="993" d="M133 258q0 154 70 215.5t223 61.5h295v194q0 101 -55 141.5t-181 40.5q-131 0 -295 -32l-18 100q136 39 307 39q189 0 275 -73t86 -216v-729h-103l-8 78q-159 -98 -338 -98q-258 0 -258 278zM252 256q0 -94 32.5 -132t131.5 -38q74 0 156 27.5t149 74.5v240h-291 q-102 0 -140 -36.5t-38 -135.5z" />
<glyph unicode="b" horiz-adv-x="1040" d="M174 16v1389l119 16v-479q145 76 328 76q146 0 216 -77t70 -214v-395q0 -176 -91 -264t-308 -88q-71 0 -170 10t-164 26zM293 109q117 -21 229 -21q79 0 132 16t82 48.5t40.5 74t11.5 101.5v401q0 90 -43.5 132t-140.5 42q-158 0 -311 -86v-708z" />
<glyph unicode="c" horiz-adv-x="819" d="M113 324v350q0 170 87 257t289 87q115 0 228 -29l-15 -98q-120 20 -213 20q-142 0 -200 -50.5t-58 -182.5v-359q0 -132 58 -182.5t200 -50.5q93 0 213 20l15 -98q-109 -28 -228 -28q-202 0 -289 87t-87 257z" />
<glyph unicode="d" horiz-adv-x="1050" d="M143 256v455q0 307 308 307q142 0 307 -33v420l119 16v-1421h-109l-6 94q-73 -56 -161.5 -85t-174.5 -29q-283 0 -283 276zM262 256q0 -90 37 -130t135 -40q167 0 324 127v664q-161 34 -312 34q-97 0 -140.5 -48.5t-43.5 -151.5v-455z" />
<glyph unicode="e" horiz-adv-x="980" d="M123 342v313q0 363 373 363q102 0 174.5 -27t112.5 -78t57.5 -114t17.5 -144v-192h-616v-125q0 -137 57 -195.5t203 -58.5q144 0 315 47l21 -96q-153 -55 -344 -55q-200 0 -285.5 94t-85.5 268zM242 569h499v90q0 131 -55 193.5t-190 62.5q-136 0 -195 -63t-59 -193v-90z " />
<glyph unicode="f" horiz-adv-x="731" d="M72 895v102h186v209q0 120 68 180t190 60q110 0 205 -29l-16 -92q-99 18 -181 18q-83 0 -115 -34t-32 -117v-195h307l-12 -102h-295v-895h-119v895h-186z" />
<glyph unicode="g" horiz-adv-x="1050" d="M133 655v13q0 175 89 262.5t294 87.5q98 0 168 -21h274v-86l-124 -10q65 -82 65 -233v-13q0 -350 -383 -350q-72 0 -133 12q-78 -64 -78 -131q0 -63 90 -71q45 -4 95 -8t91.5 -7.5t100.5 -7.5q132 -10 190 -69.5t58 -167.5q0 -106 -39.5 -165.5t-131 -86.5t-255.5 -27 q-73 0 -173.5 13.5t-176.5 35.5l18 94q175 -41 336 -41q100 0 161.5 9.5t92.5 33t41 51.5t10 76q0 74 -35.5 107t-124.5 39q-189 12 -270 18q-104 8 -150.5 56t-46.5 120q0 98 95 168q-148 84 -148 299zM248 651q0 -137 63 -190t205 -53q140 0 204 55.5t64 187.5v21 q0 135 -59.5 189t-208.5 54q-150 0 -209 -53.5t-59 -189.5v-21z" />
<glyph unicode="h" d="M174 0v1405l119 16v-512q89 43 202.5 76t196.5 33q112 0 161.5 -58t49.5 -167v-793h-119v807q0 54 -27 77t-81 23q-64 0 -178 -33t-205 -81v-793h-119z" />
<glyph unicode="i" horiz-adv-x="466" d="M174 0v997h119v-997h-119zM174 1186v219h119v-219h-119z" />
<glyph unicode="j" horiz-adv-x="456" d="M-16 -338q120 108 145 136q38 45 43 103q2 18 2 46v1050h119v-1069q0 -45 -5 -74.5t-14 -54t-37 -55.5t-56.5 -58.5t-89.5 -82.5q-19 -17 -30 -27zM174 1186v219h119v-219h-119z" />
<glyph unicode="k" horiz-adv-x="964" d="M174 0v1405l119 16v-1421h-119zM346 506l393 491h148l-398 -491l414 -506h-151z" />
<glyph unicode="l" horiz-adv-x="466" d="M174 0v1405l119 16v-1421h-119z" />
<glyph unicode="m" horiz-adv-x="1677" d="M174 0v997h105l8 -90q90 43 205.5 77t199.5 34q150 0 193 -111q96 44 214.5 77.5t203.5 33.5q112 0 161 -58t49 -167v-793h-118v807q0 54 -27 77t-82 23q-71 0 -180.5 -32.5t-202.5 -81.5v-793h-119v807q0 54 -27 77t-81 23q-64 0 -178 -33t-205 -81v-793h-119z" />
<glyph unicode="n" d="M174 0v997h105l8 -90q90 43 205.5 77t199.5 34q112 0 161.5 -58t49.5 -167v-793h-119v807q0 54 -27 77t-81 23q-64 0 -178 -33t-205 -81v-793h-119z" />
<glyph unicode="o" horiz-adv-x="1019" d="M123 342v313q0 165 93.5 264t293.5 99t293.5 -99t93.5 -264v-313q0 -165 -93.5 -263.5t-293.5 -98.5t-293.5 98.5t-93.5 263.5zM242 338q0 -127 65 -189.5t203 -62.5t203 62.5t65 189.5v321q0 127 -65 189.5t-203 62.5t-203 -62.5t-65 -189.5v-321z" />
<glyph unicode="p" horiz-adv-x="1046" d="M174 -420v1417h109l6 -94q73 56 162 85.5t174 29.5q282 0 282 -277v-454q0 -307 -307 -307q-147 0 -307 32v-415zM293 121q166 -35 311 -35q97 0 140.5 49t43.5 152v454q0 90 -37 130t-135 40q-166 0 -323 -127v-663z" />
<glyph unicode="q" horiz-adv-x="1040" d="M133 270v396q0 176 91 264t308 88q70 0 169.5 -10.5t164.5 -26.5v-1384l-118 -17v475q-143 -75 -328 -75q-146 0 -216.5 76.5t-70.5 213.5zM252 268q0 -90 43.5 -132t140.5 -42q159 0 312 86v709q-111 20 -230 20q-152 0 -209 -58.5t-57 -180.5v-402z" />
<glyph unicode="r" horiz-adv-x="638" d="M174 0v997h107l6 -151q200 132 307 172l14 -117q-102 -44 -315 -184v-717h-119z" />
<glyph unicode="s" horiz-adv-x="890" d="M143 31l21 96q131 -41 264 -41q136 0 178.5 32.5t42.5 129.5q0 43 -1 62.5t-9 43.5t-20 34t-41 24t-63.5 23.5t-96.5 23.5q-63 15 -107 30t-74.5 35t-48 40t-27 52.5t-12 63.5t-2.5 82q0 130 74 193t252 63q164 0 283 -35l-13 -100q-140 28 -278 28q-86 0 -129.5 -16.5 t-56.5 -47t-13 -89.5q0 -39 1 -59.5t8.5 -42t17.5 -32t34.5 -23t53 -21t78.5 -21.5q75 -19 124.5 -35t85.5 -37t54.5 -39t29 -50.5t13 -62.5t2.5 -83q0 -71 -14.5 -119t-51.5 -84t-102 -52.5t-164 -16.5q-76 0 -157 14t-136 37z" />
<glyph unicode="t" horiz-adv-x="759" d="M61 895v102h193v236l119 16v-252h305l-12 -102h-293v-688q0 -71 21 -98t93 -27q84 0 179 29l22 -93q-94 -38 -209 -38q-120 0 -172.5 49t-52.5 166v700h-193z" />
<glyph unicode="u" d="M164 205v792h119v-807q0 -54 27 -77t81 -23q64 0 178 33.5t205 81.5v792h119v-997h-105l-8 90q-89 -43 -205 -76.5t-200 -33.5q-112 0 -161.5 58t-49.5 167z" />
<glyph unicode="v" horiz-adv-x="919" d="M31 997h121l307 -913l309 913h121l-338 -997h-182z" />
<glyph unicode="w" horiz-adv-x="1437" d="M51 997h113l205 -917l270 917h160l268 -917l207 917h112l-227 -997h-178l-262 911l-262 -911h-178z" />
<glyph unicode="x" horiz-adv-x="903" d="M51 0l336 502l-330 495h127l267 -399l268 399h127l-332 -495l338 -502h-129l-272 408l-271 -408h-129z" />
<glyph unicode="y" horiz-adv-x="909" d="M31 997h121l307 -913l309 913h121l-338 -997l-148 -403h-116l149 403h-67z" />
<glyph unicode="z" horiz-adv-x="894" d="M113 0v96l538 805h-524l2 96h647l-2 -96l-536 -805h555v-96h-680z" />
<glyph unicode="{" horiz-adv-x="632" d="M123 610v107h33q49 0 69.5 19.5t20.5 64.5v614q0 203 205 203h141v-107h-150q-77 0 -77 -81v-623q0 -140 -129 -143q129 -5 129 -144v-622q0 -82 77 -82h150v-107h-141q-205 0 -205 203v614q0 45 -20.5 64.5t-69.5 19.5h-33z" />
<glyph unicode="|" horiz-adv-x="509" d="M215 -430v2048h80v-2048h-80z" />
<glyph unicode="}" horiz-adv-x="632" d="M41 -184h149q78 0 78 82v622q0 139 129 144q-129 3 -129 143v623q0 81 -78 81h-149v107h141q205 0 205 -203v-614q0 -45 20.5 -64.5t69.5 -19.5h33v-107h-33q-49 0 -69.5 -19.5t-20.5 -64.5v-614q0 -203 -205 -203h-141v107z" />
<glyph unicode="~" horiz-adv-x="1013" d="M102 459q43 111 103 171t149 60q42 0 81.5 -17t69.5 -41t58.5 -48t61 -41t63.5 -17q27 0 49 11t36.5 24t30 41t23 45t21.5 53l84 -36q-17 -49 -36 -86t-48 -73t-70.5 -55.5t-93.5 -19.5q-42 0 -81.5 16.5t-70 40t-59 47t-60.5 40t-63 16.5q-57 0 -90.5 -39.5 t-71.5 -130.5z" />
<glyph unicode="&#xa1;" horiz-adv-x="516" d="M195 821v176h127v-176h-127zM199 303l24 344h70l24 -344v-706h-118v706z" />
<glyph unicode="&#xa2;" horiz-adv-x="860" d="M123 508v350q0 156 72.5 242.5t240.5 99.5v186h115v-186q106 -7 176 -26l-14 -99q-126 21 -213 21q-142 0 -200 -51t-58 -183v-358q0 -132 58 -183t200 -51q87 0 213 21l14 -98q-86 -23 -176 -29v-184h-115v186q-168 13 -240.5 99t-72.5 243z" />
<glyph unicode="&#xa3;" horiz-adv-x="1116" d="M164 629v102h190q-100 157 -100 313q0 157 84 228t289 71q160 0 299 -40l-19 -103q-141 37 -276 37q-155 0 -206.5 -40t-51.5 -157q0 -139 110 -309h408l-8 -102h-357q23 -48 23 -119q0 -198 -195 -404h609v-106h-766v106q104 85 168.5 193t64.5 209q0 62 -27 121h-239z " />
<glyph unicode="&#xa4;" horiz-adv-x="1105" d="M154 252l127 127q-41 61 -41 160v295q0 96 41 157l-127 129l77 78l134 -135q70 37 188 37q110 0 186 -37l135 135l78 -78l-129 -129q41 -61 41 -157v-295q0 -97 -41 -158l129 -129l-78 -78l-135 135q-70 -37 -186 -37t-188 35l-134 -133zM350 565q0 -103 40.5 -146.5 t162.5 -43.5q121 0 161 43.5t40 146.5v242q0 103 -40 146.5t-161 43.5q-122 0 -162.5 -43.5t-40.5 -146.5v-242z" />
<glyph unicode="&#xa5;" horiz-adv-x="1112" d="M51 1323h125l379 -782l381 782h125l-293 -594h207v-96h-254l-105 -213v-43h359v-92h-359v-285h-120v285h-359v92h359v43l-105 213h-254v96h207z" />
<glyph unicode="&#xa6;" horiz-adv-x="509" d="M215 424h80v-854h-80v854zM215 764v854h80v-854h-80z" />
<glyph unicode="&#xa7;" horiz-adv-x="1146" d="M143 1159q0 120 63 172.5t195 52.5q64 0 151 -14t150 -35l-18 -92q-163 39 -274 39q-93 0 -120.5 -26t-27.5 -105q0 -107 20 -235t64.5 -292t79 -277.5t98.5 -313.5l-106 -33q-132 386 -203.5 666.5t-71.5 492.5zM455 -332l18 92q69 -17 150.5 -28t124.5 -11 q93 0 120 26.5t27 105.5q0 107 -20 235t-64.5 292t-79 277.5t-98.5 313.5l106 33q132 -385 203.5 -666.5t71.5 -493.5q0 -120 -63 -172.5t-195 -52.5q-64 0 -151 14t-150 35z" />
<glyph unicode="&#xa8;" horiz-adv-x="802" d="M164 1143v135h127v-135h-127zM512 1143v135h127v-135h-127z" />
<glyph unicode="&#xa9;" horiz-adv-x="1691" d="M143 682q0 145 51 274t141 224t222.5 150.5t288.5 55.5q207 0 368.5 -95t247.5 -255t86 -354t-86 -353t-247.5 -254t-368.5 -95q-155 0 -288 55.5t-223 150.5t-141 223.5t-51 272.5zM242 682q0 -127 42 -239t118.5 -194.5t191.5 -130.5t252 -48t252 48t191.5 130.5 t118.5 194.5t42 239t-42 239t-118.5 195.5t-191.5 131.5t-252 48t-252 -48t-191.5 -131.5t-118.5 -195.5t-42 -239zM604 535v294q0 109 56.5 159t189.5 50q106 0 207 -24l-10 -80q-95 20 -191 20q-97 0 -129.5 -25.5t-32.5 -101.5v-290q0 -76 32.5 -101.5t129.5 -25.5 q96 0 191 20l10 -80q-101 -24 -207 -24q-133 0 -189.5 50t-56.5 159z" />
<glyph unicode="&#xaa;" horiz-adv-x="774" d="M164 971q0 100 42.5 136t139.5 36h166v114q0 49 -28.5 70t-96.5 21q-87 0 -184 -23l-15 76q91 24 195 24q117 0 167 -39t50 -124v-455h-76l-6 41q-87 -53 -170 -53q-93 0 -138.5 42.5t-45.5 133.5zM252 971q0 -57 23.5 -78t76.5 -21q36 0 83 17t77 39v135h-162 q-59 0 -78.5 -17.5t-19.5 -74.5z" />
<glyph unicode="&#xab;" horiz-adv-x="978" d="M113 500l262 395l90 -61l-221 -334l221 -334l-90 -62zM494 500l262 395l90 -61l-221 -334l221 -334l-90 -62z" />
<glyph unicode="&#xac;" horiz-adv-x="1159" d="M133 444v107h832v-471h-111v364h-721z" />
<glyph unicode="&#xad;" horiz-adv-x="741" d="M133 524v101h475v-101h-475z" />
<glyph unicode="&#xae;" horiz-adv-x="1026" d="M143 1055q0 158 101.5 264t269.5 106t268.5 -106t100.5 -264q0 -157 -101 -264t-268 -107t-269 107t-102 264zM215 1055q0 -130 79 -215.5t220 -85.5t219 85.5t78 215.5q0 131 -78 217t-219 86t-220 -86.5t-79 -216.5zM403 893v340h132q102 0 102 -88v-51q0 -57 -49 -78 l92 -123h-59l-86 113h-82v-113h-50zM453 1051h82q53 0 53 43v51q0 25 -12 34t-41 9h-82v-137z" />
<glyph unicode="&#xaf;" horiz-adv-x="770" d="M143 1159v98h484v-98h-484z" />
<glyph unicode="&#xb0;" horiz-adv-x="733" d="M154 1128q0 92 57.5 153.5t155.5 61.5t155.5 -61.5t57.5 -153.5t-57.5 -152.5t-155.5 -60.5q-100 0 -156.5 60t-56.5 153zM227 1128q0 -61 37 -104t103 -43t102.5 43t36.5 104q0 62 -36.5 106t-102.5 44t-103 -44t-37 -106z" />
<glyph unicode="&#xb1;" horiz-adv-x="1159" d="M164 0v106h831v-106h-831zM164 608v107h358v364h115v-364h358v-107h-358v-364h-115v364h-358z" />
<glyph unicode="&#xb2;" horiz-adv-x="790" d="M154 498v82q21 27 79 100t129 164q68 88 99 139t36 72.5t5 58.5v27q0 63 -26 86.5t-118 23.5q-67 0 -186 -26l-16 86q94 32 206 32q127 0 184.5 -47.5t57.5 -142.5v-53q0 -55 -26.5 -113t-112.5 -170q-142 -185 -174 -225h325v-94h-462z" />
<glyph unicode="&#xb3;" horiz-adv-x="765" d="M143 510l15 86q94 -25 186 -25q93 0 126.5 26t33.5 91v74q0 108 -129 108h-170v93h172q61 0 84.5 24.5t23.5 67.5v100q0 55 -32 76.5t-105 21.5q-86 0 -178 -18l-14 84q83 24 188 24q240 0 240 -184v-102q0 -50 -18.5 -81.5t-65.5 -57.5q102 -39 102 -154v-78 q0 -109 -61 -157t-205 -48q-87 0 -193 29z" />
<glyph unicode="&#xb4;" horiz-adv-x="634" d="M154 1202q149 92 268 176l59 -90q-114 -82 -272 -170z" />
<glyph unicode="&#xb5;" d="M164 -403v1400h119v-807q0 -54 27 -77t81 -23q64 0 178 33.5t205 81.5v792h119v-997h-105l-8 90q-89 -43 -205 -76.5t-200 -33.5q-48 0 -92 14v-397h-119z" />
<glyph unicode="&#xb6;" horiz-adv-x="1028" d="M154 950q0 177 118 295.5t295 118.5v-825q-177 0 -295 118t-118 293zM526 -346q128 128 155.5 161.5t27.5 61.5v1487h114v-1483q0 -43 -11 -68t-54.5 -73.5t-161.5 -163.5z" />
<glyph unicode="&#xb7;" horiz-adv-x="495" d="M184 567v176h127v-176h-127z" />
<glyph unicode="&#xb8;" horiz-adv-x="641" d="M143 -395l19 71q67 -18 125 -18q116 0 116 72q0 30 -24.5 46.5t-71.5 16.5q-61 0 -119 -12l48 219h86l-31 -143q27 6 57 6q65 0 107.5 -33t42.5 -96q0 -70 -51.5 -114t-143.5 -44q-75 0 -160 29z" />
<glyph unicode="&#xb9;" horiz-adv-x="673" d="M123 1194l223 129h82v-829h-102v710l-162 -86z" />
<glyph unicode="&#xba;" horiz-adv-x="802" d="M164 1018v186q0 101 57.5 161t179.5 60q227 0 238 -221v-186q0 -102 -57.5 -162.5t-180.5 -60.5t-180 60.5t-57 162.5zM252 1016q0 -144 149 -144q152 0 152 144v190q0 142 -152 142q-149 0 -149 -142v-190z" />
<glyph unicode="&#xbb;" horiz-adv-x="978" d="M133 176l221 334l-221 334l90 61l262 -395l-262 -395zM514 176l221 334l-221 334l90 61l262 -395l-262 -395z" />
<glyph unicode="&#xbc;" horiz-adv-x="1677" d="M123 1194l223 129h82v-829h-102v710l-162 -86zM457 -20l536 1396l84 -33l-534 -1396zM907 186v99l348 544h127v-553h121v-90h-121v-186h-98v186h-377zM1012 276h272v445z" />
<glyph unicode="&#xbd;" horiz-adv-x="1695" d="M123 1194l223 129h82v-829h-102v710l-162 -86zM457 -20l536 1396l84 -33l-534 -1396zM1059 0v82q22 28 80 100.5t129 163.5q68 88 99 139.5t35.5 72t4.5 58.5v27q0 64 -26 87.5t-117 23.5q-63 0 -187 -27l-16 86q97 33 207 33q127 0 184 -48t57 -143v-53 q0 -55 -26.5 -113t-112.5 -170q-142 -185 -174 -225h326v-94h-463z" />
<glyph unicode="&#xbe;" horiz-adv-x="1738" d="M143 510l15 86q94 -25 186 -25q93 0 126.5 26t33.5 91v74q0 108 -129 108h-170v93h172q61 0 84.5 24.5t23.5 67.5v100q0 55 -32 76.5t-105 21.5q-86 0 -178 -18l-14 84q83 24 188 24q240 0 240 -184v-102q0 -50 -18.5 -81.5t-65.5 -57.5q102 -39 102 -154v-78 q0 -109 -61 -157t-205 -48q-87 0 -193 29zM518 -20l537 1396l84 -33l-535 -1396zM969 186v99l348 544h127v-553h121v-90h-121v-186h-98v186h-377zM1073 276h273v445z" />
<glyph unicode="&#xbf;" horiz-adv-x="937" d="M143 -63q0 97 4.5 147t27 99t58 83.5t107.5 91.5q42 33 109.5 87.5t103.5 82.5l70 -90q-164 -128 -224 -178q-54 -46 -77.5 -69.5t-39.5 -61.5t-18 -73t-2 -115q0 -57 2.5 -91t12 -66.5t26 -49t46 -29.5t70.5 -17.5t101 -4.5q131 0 275 30l20 -102q-143 -35 -299 -35 q-95 0 -160.5 14t-107.5 39.5t-65 71.5t-31.5 100.5t-8.5 135.5zM496 801v196h127v-196h-127z" />
<glyph unicode="&#xc0;" horiz-adv-x="1271" d="M72 0l475 1364h178l475 -1364h-119l-129 358h-635l-127 -358h-118zM354 463h561l-280 831zM383 1624l59 90q108 -79 250 -164l-55 -84q-116 61 -254 158z" />
<glyph unicode="&#xc1;" horiz-adv-x="1271" d="M72 0l475 1364h178l475 -1364h-119l-129 358h-635l-127 -358h-118zM354 463h561l-280 831zM578 1550q136 81 249 164l60 -90q-138 -97 -254 -158z" />
<glyph unicode="&#xc2;" horiz-adv-x="1271" d="M72 0l475 1364h178l475 -1364h-119l-129 358h-635l-127 -358h-118zM354 463h561l-280 831zM381 1546q137 84 256 168q155 -110 254 -168l-43 -80q-80 42 -211 123q-158 -95 -211 -123z" />
<glyph unicode="&#xc3;" horiz-adv-x="1271" d="M72 0l475 1364h178l475 -1364h-119l-129 358h-635l-127 -358h-118zM354 463h561l-280 831zM365 1556q29 44 74.5 72.5t92.5 28.5q37 0 111 -33q81 -37 117 -37q53 0 98 51l60 -53q-28 -45 -69 -72.5t-89 -27.5q-47 0 -117 33q-3 1 -18 8t-18 8t-15 6t-17 6.5t-14.5 4 t-17 3t-15.5 0.5q-53 0 -110 -57z" />
<glyph unicode="&#xc4;" horiz-adv-x="1271" d="M72 0l475 1364h178l475 -1364h-119l-129 358h-635l-127 -358h-118zM354 463h561l-280 831zM391 1503v123h135v-123h-135zM743 1503v123h136v-123h-136z" />
<glyph unicode="&#xc5;" horiz-adv-x="1271" d="M72 0l475 1364h178l475 -1364h-119l-129 358h-635l-127 -358h-118zM354 463h561l-280 831zM506 1546q0 57 33.5 91t95.5 34t95.5 -34t33.5 -91q0 -56 -34 -91.5t-95 -35.5t-95 35.5t-34 91.5zM573 1546q0 -30 16 -47.5t46 -17.5q59 0 59 65q0 66 -59 66q-62 0 -62 -66z " />
<glyph unicode="&#xc6;" horiz-adv-x="1718" d="M72 0l475 1364h1026v-109h-811l170 -485h596v-108h-559l192 -553h414v-109h-494l-129 358h-635l-127 -358h-118zM354 463h561l-280 831z" />
<glyph unicode="&#xc7;" horiz-adv-x="1046" d="M154 375v614q0 197 106 296t346 99q175 0 328 -30l-14 -105q-155 27 -304 27q-187 0 -264.5 -65t-77.5 -224v-610q0 -159 77.5 -224t264.5 -65q149 0 304 27l14 -105q-141 -26 -309 -30l-27 -123q27 6 57 6q65 0 107.5 -33t42.5 -96q0 -70 -51.5 -114t-143.5 -44 q-74 0 -159 29l18 71q67 -18 125 -18q117 0 117 72q0 30 -25 46.5t-72 16.5q-60 0 -118 -12l43 201q-203 13 -294 111.5t-91 281.5z" />
<glyph unicode="&#xc8;" horiz-adv-x="1097" d="M184 0v1364h768v-109h-647v-505h602v-109h-602v-532h649v-109h-770zM350 1624l60 90q113 -83 249 -164l-55 -84q-116 61 -254 158z" />
<glyph unicode="&#xc9;" horiz-adv-x="1097" d="M184 0v1364h768v-109h-647v-505h602v-109h-602v-532h649v-109h-770zM471 1550q142 85 250 164l59 -90q-138 -97 -254 -158z" />
<glyph unicode="&#xca;" horiz-adv-x="1097" d="M184 0v1364h768v-109h-647v-505h602v-109h-602v-532h649v-109h-770zM326 1546q137 84 256 168q155 -110 254 -168l-43 -80q-80 42 -211 123q-158 -95 -211 -123z" />
<glyph unicode="&#xcb;" horiz-adv-x="1097" d="M184 0v1364h768v-109h-647v-505h602v-109h-602v-532h649v-109h-770zM336 1503v123h135v-123h-135zM688 1503v123h135v-123h-135z" />
<glyph unicode="&#xcc;" horiz-adv-x="509" d="M12 1624l60 90q108 -79 250 -164l-56 -84q-116 61 -254 158zM195 0v1364h120v-1364h-120z" />
<glyph unicode="&#xcd;" horiz-adv-x="509" d="M195 0v1364h120v-1364h-120zM197 1550q136 81 249 164l60 -90q-138 -97 -254 -158z" />
<glyph unicode="&#xce;" horiz-adv-x="509" d="M0 1546q137 84 256 168q155 -110 254 -168l-43 -80q-80 42 -211 123q-158 -95 -211 -123zM195 0v1364h120v-1364h-120z" />
<glyph unicode="&#xcf;" horiz-adv-x="509" d="M10 1503v123h135v-123h-135zM195 0v1364h120v-1364h-120zM362 1503v123h136v-123h-136z" />
<glyph unicode="&#xd0;" horiz-adv-x="1284" d="M102 643v102h158v619h451q121 0 206 -29.5t132 -86t67.5 -126.5t20.5 -161v-558q0 -91 -20.5 -161t-67.5 -126.5t-132 -86t-206 -29.5h-451v643h-158zM381 109h332q167 0 235 68.5t68 219.5v570q0 151 -68 219.5t-235 68.5h-332v-510h289v-102h-289v-534z" />
<glyph unicode="&#xd1;" horiz-adv-x="1306" d="M184 0v1364h176l648 -1247v1247h114v-1364h-176l-647 1245v-1245h-115zM403 1556q29 43 74.5 72t93.5 29q37 0 111 -33q81 -37 117 -37q53 0 98 51l59 -53q-28 -45 -69 -72.5t-88 -27.5t-117 33q-3 1 -18 8t-18 8t-15 6t-17 6.5t-14.5 4t-17 3t-15.5 0.5q-53 0 -110 -57z " />
<glyph unicode="&#xd2;" horiz-adv-x="1261" d="M154 385v594q0 90 26 162t81 127.5t148.5 85.5t221.5 30t221.5 -30t148.5 -85.5t81 -127.5t26 -162v-594q0 -90 -26 -162t-81 -127.5t-148.5 -85.5t-221.5 -30t-221.5 30t-148.5 85.5t-81 127.5t-26 162zM274 389q0 -151 83 -226t274 -75t273.5 75t82.5 226v586 q0 151 -82.5 226t-273.5 75t-274 -75t-83 -226v-586zM410 1624l59 90q108 -79 250 -164l-55 -84q-116 61 -254 158z" />
<glyph unicode="&#xd3;" horiz-adv-x="1261" d="M154 385v594q0 90 26 162t81 127.5t148.5 85.5t221.5 30t221.5 -30t148.5 -85.5t81 -127.5t26 -162v-594q0 -90 -26 -162t-81 -127.5t-148.5 -85.5t-221.5 -30t-221.5 30t-148.5 85.5t-81 127.5t-26 162zM274 389q0 -151 83 -226t274 -75t273.5 75t82.5 226v586 q0 151 -82.5 226t-273.5 75t-274 -75t-83 -226v-586zM553 1550q142 85 250 164l59 -90q-138 -97 -254 -158z" />
<glyph unicode="&#xd4;" horiz-adv-x="1261" d="M154 385v594q0 90 26 162t81 127.5t148.5 85.5t221.5 30t221.5 -30t148.5 -85.5t81 -127.5t26 -162v-594q0 -90 -26 -162t-81 -127.5t-148.5 -85.5t-221.5 -30t-221.5 30t-148.5 85.5t-81 127.5t-26 162zM274 389q0 -151 83 -226t274 -75t273.5 75t82.5 226v586 q0 151 -82.5 226t-273.5 75t-274 -75t-83 -226v-586zM377 1546q137 84 256 168q155 -110 254 -168l-43 -80q-80 42 -211 123q-158 -95 -211 -123z" />
<glyph unicode="&#xd5;" horiz-adv-x="1261" d="M154 385v594q0 90 26 162t81 127.5t148.5 85.5t221.5 30t221.5 -30t148.5 -85.5t81 -127.5t26 -162v-594q0 -90 -26 -162t-81 -127.5t-148.5 -85.5t-221.5 -30t-221.5 30t-148.5 85.5t-81 127.5t-26 162zM274 389q0 -151 83 -226t274 -75t273.5 75t82.5 226v586 q0 151 -82.5 226t-273.5 75t-274 -75t-83 -226v-586zM367 1556q29 43 74.5 72t93.5 29q18 0 38 -5t30 -9.5t42 -18.5q81 -37 117 -37q53 0 98 51l60 -53q-28 -45 -69 -72.5t-89 -27.5q-47 0 -117 33q-3 1 -18 8t-18 8t-15 6t-17 6.5t-14.5 4t-17 3t-15.5 0.5q-53 0 -110 -57 z" />
<glyph unicode="&#xd6;" horiz-adv-x="1261" d="M154 385v594q0 90 26 162t81 127.5t148.5 85.5t221.5 30t221.5 -30t148.5 -85.5t81 -127.5t26 -162v-594q0 -90 -26 -162t-81 -127.5t-148.5 -85.5t-221.5 -30t-221.5 30t-148.5 85.5t-81 127.5t-26 162zM274 389q0 -151 83 -226t274 -75t273.5 75t82.5 226v586 q0 151 -82.5 226t-273.5 75t-274 -75t-83 -226v-586zM387 1503v123h135v-123h-135zM739 1503v123h135v-123h-135z" />
<glyph unicode="&#xd7;" horiz-adv-x="1122" d="M164 176l321 324l-321 323l74 74l323 -322l324 322l73 -74l-321 -323l321 -324l-73 -74l-324 322l-323 -322z" />
<glyph unicode="&#xd8;" horiz-adv-x="1261" d="M154 -82l100 182q-100 100 -100 285v594q0 90 26 162t81 127.5t148.5 85.5t221.5 30q190 0 305 -67l94 170l78 -43l-102 -180q102 -102 102 -285v-594q0 -90 -26 -162t-81 -127.5t-148.5 -85.5t-221.5 -30q-193 0 -305 65l-95 -168zM274 389q0 -112 41 -178l566 1008 q-88 57 -250 57q-191 0 -274 -75t-83 -226v-586zM381 145q80 -57 250 -57q191 0 273.5 75t82.5 226v586q0 108 -43 178z" />
<glyph unicode="&#xd9;" horiz-adv-x="1290" d="M174 387v977h121v-977q0 -144 89.5 -221.5t260.5 -77.5t260.5 77.5t89.5 221.5v977h121v-977q0 -89 -27.5 -161.5t-83 -128t-147.5 -86.5t-213 -31t-213 31t-147.5 86.5t-83 128t-27.5 161.5zM422 1624l59 90q108 -79 250 -164l-55 -84q-116 61 -254 158z" />
<glyph unicode="&#xda;" horiz-adv-x="1290" d="M174 387v977h121v-977q0 -144 89.5 -221.5t260.5 -77.5t260.5 77.5t89.5 221.5v977h121v-977q0 -89 -27.5 -161.5t-83 -128t-147.5 -86.5t-213 -31t-213 31t-147.5 86.5t-83 128t-27.5 161.5zM563 1550q142 85 250 164l59 -90q-138 -97 -254 -158z" />
<glyph unicode="&#xdb;" horiz-adv-x="1290" d="M174 387v977h121v-977q0 -144 89.5 -221.5t260.5 -77.5t260.5 77.5t89.5 221.5v977h121v-977q0 -89 -27.5 -161.5t-83 -128t-147.5 -86.5t-213 -31t-213 31t-147.5 86.5t-83 128t-27.5 161.5zM391 1546q137 84 256 168q155 -110 254 -168l-43 -80q-80 42 -211 123 q-158 -95 -211 -123z" />
<glyph unicode="&#xdc;" horiz-adv-x="1290" d="M174 387v977h121v-977q0 -144 89.5 -221.5t260.5 -77.5t260.5 77.5t89.5 221.5v977h121v-977q0 -89 -27.5 -161.5t-83 -128t-147.5 -86.5t-213 -31t-213 31t-147.5 86.5t-83 128t-27.5 161.5zM401 1503v123h136v-123h-136zM754 1503v123h135v-123h-135z" />
<glyph unicode="&#xdd;" horiz-adv-x="1112" d="M31 1364h125l399 -823l401 823h125l-465 -944v-420h-120v420zM481 1550q142 85 250 164l60 -90q-138 -97 -254 -158z" />
<glyph unicode="&#xde;" horiz-adv-x="1114" d="M184 0v1364h121v-250h342q375 0 375 -315v-213q0 -316 -375 -316h-342v-270h-121zM305 379h344q131 0 191.5 48t60.5 159v213q0 111 -60.5 159t-191.5 48h-344v-627z" />
<glyph unicode="&#xdf;" horiz-adv-x="1214" d="M184 0v1085q0 170 97.5 265.5t273.5 95.5q175 0 262.5 -85t87.5 -216q0 -139 -80 -281q-40 -72 -54.5 -111t-14.5 -79q0 -17 3 -28.5t16 -32t45.5 -47.5t86.5 -62q55 -36 83 -58t52 -45t33 -48t13 -54t4 -76q0 -63 -11.5 -104t-42 -74.5t-90 -49t-151.5 -15.5 q-121 0 -217 38l18 99q42 -13 103 -22t98 -9q104 0 139 25t35 106q0 37 -2 55t-9.5 39.5t-27 39t-48.5 38t-81 53.5q-105 65 -136.5 115.5t-31.5 120.5q0 52 14 94t47 102q58 104 73 155t15 118q0 93 -57 144.5t-176 51.5q-124 0 -187 -68t-63 -216v-1059h-119z" />
<glyph unicode="&#xe0;" horiz-adv-x="993" d="M133 258q0 154 70 215.5t223 61.5h295v194q0 101 -55 141.5t-181 40.5q-131 0 -295 -32l-18 100q136 39 307 39q189 0 275 -73t86 -216v-729h-103l-8 78q-159 -98 -338 -98q-258 0 -258 278zM252 256q0 -94 32.5 -132t131.5 -38q74 0 156 27.5t149 74.5v240h-291 q-102 0 -140 -36.5t-38 -135.5zM281 1288l59 90q119 -84 268 -176l-55 -84q-158 88 -272 170z" />
<glyph unicode="&#xe1;" horiz-adv-x="993" d="M133 258q0 154 70 215.5t223 61.5h295v194q0 101 -55 141.5t-181 40.5q-131 0 -295 -32l-18 100q136 39 307 39q189 0 275 -73t86 -216v-729h-103l-8 78q-159 -98 -338 -98q-258 0 -258 278zM252 256q0 -94 32.5 -132t131.5 -38q74 0 156 27.5t149 74.5v240h-291 q-102 0 -140 -36.5t-38 -135.5zM377 1202q149 92 268 176l60 -90q-110 -79 -273 -170z" />
<glyph unicode="&#xe2;" horiz-adv-x="993" d="M133 258q0 154 70 215.5t223 61.5h295v194q0 101 -55 141.5t-181 40.5q-131 0 -295 -32l-18 100q136 39 307 39q189 0 275 -73t86 -216v-729h-103l-8 78q-159 -98 -338 -98q-258 0 -258 278zM242 1200q122 73 264 172q163 -115 262 -172l-43 -80q-40 21 -76.5 42t-79 47 t-63.5 38q-156 -94 -219 -127zM252 256q0 -94 32.5 -132t131.5 -38q74 0 156 27.5t149 74.5v240h-291q-102 0 -140 -36.5t-38 -135.5z" />
<glyph unicode="&#xe3;" horiz-adv-x="993" d="M133 258q0 154 70 215.5t223 61.5h295v194q0 101 -55 141.5t-181 40.5q-131 0 -295 -32l-18 100q136 39 307 39q189 0 275 -73t86 -216v-729h-103l-8 78q-159 -98 -338 -98q-258 0 -258 278zM238 1202q29 43 74.5 72t93.5 29q18 0 38 -5t30 -9.5t42 -18.5q81 -37 117 -37 q53 0 98 51l60 -53q-28 -45 -69.5 -73t-88.5 -28t-117 33q-6 3 -21 9.5t-20.5 9t-17.5 7t-19.5 6.5t-17.5 3.5t-19 1.5q-53 0 -110 -57zM252 256q0 -94 32.5 -132t131.5 -38q74 0 156 27.5t149 74.5v240h-291q-102 0 -140 -36.5t-38 -135.5z" />
<glyph unicode="&#xe4;" horiz-adv-x="993" d="M133 258q0 154 70 215.5t223 61.5h295v194q0 101 -55 141.5t-181 40.5q-131 0 -295 -32l-18 100q136 39 307 39q189 0 275 -73t86 -216v-729h-103l-8 78q-159 -98 -338 -98q-258 0 -258 278zM252 256q0 -94 32.5 -132t131.5 -38q74 0 156 27.5t149 74.5v240h-291 q-102 0 -140 -36.5t-38 -135.5zM287 1143v135h127v-135h-127zM635 1143v135h127v-135h-127z" />
<glyph unicode="&#xe5;" horiz-adv-x="993" d="M133 258q0 154 70 215.5t223 61.5h295v194q0 101 -55 141.5t-181 40.5q-131 0 -295 -32l-18 100q136 39 307 39q189 0 275 -73t86 -216v-729h-103l-8 78q-159 -98 -338 -98q-258 0 -258 278zM252 256q0 -94 32.5 -132t131.5 -38q74 0 156 27.5t149 74.5v240h-291 q-102 0 -140 -36.5t-38 -135.5zM369 1239q0 57 35.5 93t97.5 36t97.5 -36t35.5 -93q0 -56 -36 -93.5t-97 -37.5t-97 37.5t-36 93.5zM436 1239q0 -30 18 -50t48 -20t46.5 20t16.5 50q0 32 -16.5 51t-46.5 19t-48 -19.5t-18 -50.5z" />
<glyph unicode="&#xe6;" horiz-adv-x="1579" d="M133 264q0 83 17.5 137.5t56 85t90 42.5t129.5 12h295v139q0 114 -54 172.5t-173 58.5q-126 0 -304 -32l-16 100q142 39 305 39q217 0 301 -139q57 74 127 106.5t187 32.5q102 0 174.5 -27t112.5 -78t57.5 -114t17.5 -144v-192h-616v-152q5 -121 62.5 -174t189.5 -53 q67 0 162.5 12t160.5 29l21 -96q-162 -49 -344 -49q-225 0 -310 120q-143 -120 -348 -120q-150 0 -225.5 68.5t-75.5 215.5zM252 262q0 -101 43.5 -138.5t140.5 -37.5q171 0 303 109q-18 58 -18 147v92h-289q-103 0 -141.5 -33.5t-38.5 -138.5zM840 569h499v90 q0 131 -55 193.5t-190 62.5q-136 0 -195 -63t-59 -193v-90z" />
<glyph unicode="&#xe7;" horiz-adv-x="819" d="M113 324v350q0 170 87 257t289 87q115 0 228 -29l-15 -98q-120 20 -213 20q-142 0 -200 -50.5t-58 -182.5v-359q0 -132 58 -182.5t200 -50.5q93 0 213 20l15 -98q-104 -24 -221 -28l-27 -123q27 6 57 6q65 0 107.5 -33t42.5 -96q0 -70 -51.5 -114t-143.5 -44 q-74 0 -159 29l18 71q67 -18 125 -18q117 0 117 72q0 30 -25 46.5t-72 16.5q-60 0 -118 -12l43 203q-159 17 -228 102t-69 238z" />
<glyph unicode="&#xe8;" horiz-adv-x="980" d="M123 342v313q0 363 373 363q102 0 174.5 -27t112.5 -78t57.5 -114t17.5 -144v-192h-616v-125q0 -137 57 -195.5t203 -58.5q144 0 315 47l21 -96q-153 -55 -344 -55q-200 0 -285.5 94t-85.5 268zM242 569h499v90q0 131 -55 193.5t-190 62.5q-136 0 -195 -63t-59 -193v-90z M272 1288l60 90q119 -84 268 -176l-55 -84q-163 91 -273 170z" />
<glyph unicode="&#xe9;" horiz-adv-x="980" d="M123 342v313q0 363 373 363q102 0 174.5 -27t112.5 -78t57.5 -114t17.5 -144v-192h-616v-125q0 -137 57 -195.5t203 -58.5q144 0 315 47l21 -96q-153 -55 -344 -55q-200 0 -285.5 94t-85.5 268zM242 569h499v90q0 131 -55 193.5t-190 62.5q-136 0 -195 -63t-59 -193v-90z M385 1202q149 92 268 176l60 -90q-110 -79 -273 -170z" />
<glyph unicode="&#xea;" horiz-adv-x="980" d="M123 342v313q0 363 373 363q102 0 174.5 -27t112.5 -78t57.5 -114t17.5 -144v-192h-616v-125q0 -137 57 -195.5t203 -58.5q144 0 315 47l21 -96q-153 -55 -344 -55q-200 0 -285.5 94t-85.5 268zM242 569h499v90q0 131 -55 193.5t-190 62.5q-136 0 -195 -63t-59 -193v-90z M252 1200q122 73 264 172q163 -115 262 -172l-43 -80q-40 21 -76.5 42t-79 47t-63.5 38q-156 -94 -219 -127z" />
<glyph unicode="&#xeb;" horiz-adv-x="980" d="M123 342v313q0 363 373 363q102 0 174.5 -27t112.5 -78t57.5 -114t17.5 -144v-192h-616v-125q0 -137 57 -195.5t203 -58.5q144 0 315 47l21 -96q-153 -55 -344 -55q-200 0 -285.5 94t-85.5 268zM242 569h499v90q0 131 -55 193.5t-190 62.5q-136 0 -195 -63t-59 -193v-90z M256 1143v135h127v-135h-127zM604 1143v135h127v-135h-127z" />
<glyph unicode="&#xec;" horiz-adv-x="466" d="M-18 1288l59 90q119 -84 268 -176l-55 -84q-158 88 -272 170zM174 0v997h119v-997h-119z" />
<glyph unicode="&#xed;" horiz-adv-x="466" d="M172 1202q149 92 268 176l60 -90q-110 -79 -273 -170zM174 0v997h119v-997h-119z" />
<glyph unicode="&#xee;" horiz-adv-x="466" d="M-29 1200q129 76 265 172q163 -115 262 -172l-43 -80q-40 21 -76.5 42t-79 47t-63.5 38q-149 -90 -220 -127zM174 0v997h119v-997h-119z" />
<glyph unicode="&#xef;" horiz-adv-x="466" d="M-4 1143v135h127v-135h-127zM174 0v997h119v-997h-119zM344 1143v135h127v-135h-127z" />
<glyph unicode="&#xf0;" horiz-adv-x="1050" d="M133 342v242q0 185 96.5 273.5t268.5 88.5q164 0 290 -96q-3 211 -167 336l-172 -133l-50 67l150 117q-94 59 -242 106l31 93q178 -57 295 -133l131 104l51 -68l-113 -88q205 -172 205 -487v-422q0 -165 -93.5 -263.5t-293.5 -98.5t-293.5 98.5t-93.5 263.5zM252 338 q0 -127 65 -189.5t203 -62.5t203 62.5t65 189.5v379q-38 49 -116 86t-164 37q-137 0 -196.5 -61.5t-59.5 -190.5v-250z" />
<glyph unicode="&#xf1;" d="M174 0v997h105l8 -90q90 43 205.5 77t199.5 34q112 0 161.5 -58t49.5 -167v-793h-119v807q0 54 -27 77t-81 23q-64 0 -178 -33t-205 -81v-793h-119zM268 1202q29 43 74.5 72t93.5 29q37 0 111 -33q81 -37 117 -37q53 0 98 51l59 -53q-28 -45 -69 -73t-88 -28t-117 33 q-6 3 -21 9.5t-20.5 9t-17.5 7t-19.5 6.5t-17.5 3.5t-19 1.5q-53 0 -110 -57z" />
<glyph unicode="&#xf2;" horiz-adv-x="1019" d="M123 342v313q0 165 93.5 264t293.5 99t293.5 -99t93.5 -264v-313q0 -165 -93.5 -263.5t-293.5 -98.5t-293.5 98.5t-93.5 263.5zM242 338q0 -127 65 -189.5t203 -62.5t203 62.5t65 189.5v321q0 127 -65 189.5t-203 62.5t-203 -62.5t-65 -189.5v-321zM307 1288l60 90 q119 -84 268 -176l-55 -84q-163 91 -273 170z" />
<glyph unicode="&#xf3;" horiz-adv-x="1019" d="M123 342v313q0 165 93.5 264t293.5 99t293.5 -99t93.5 -264v-313q0 -165 -93.5 -263.5t-293.5 -98.5t-293.5 98.5t-93.5 263.5zM242 338q0 -127 65 -189.5t203 -62.5t203 62.5t65 189.5v321q0 127 -65 189.5t-203 62.5t-203 -62.5t-65 -189.5v-321zM410 1202 q149 92 268 176l59 -90q-114 -82 -272 -170z" />
<glyph unicode="&#xf4;" horiz-adv-x="1019" d="M123 342v313q0 165 93.5 264t293.5 99t293.5 -99t93.5 -264v-313q0 -165 -93.5 -263.5t-293.5 -98.5t-293.5 98.5t-93.5 263.5zM242 338q0 -127 65 -189.5t203 -62.5t203 62.5t65 189.5v321q0 127 -65 189.5t-203 62.5t-203 -62.5t-65 -189.5v-321zM248 1200 q122 73 264 172q163 -115 262 -172l-43 -80q-40 21 -76.5 42t-79 47t-63.5 38q-156 -94 -219 -127z" />
<glyph unicode="&#xf5;" horiz-adv-x="1019" d="M123 342v313q0 165 93.5 264t293.5 99t293.5 -99t93.5 -264v-313q0 -165 -93.5 -263.5t-293.5 -98.5t-293.5 98.5t-93.5 263.5zM242 338q0 -127 65 -189.5t203 -62.5t203 62.5t65 189.5v321q0 127 -65 189.5t-203 62.5t-203 -62.5t-65 -189.5v-321zM248 1202 q29 43 74.5 72t93.5 29q18 0 38 -5t30 -9.5t42 -18.5q81 -37 117 -37q53 0 98 51l60 -53q-28 -45 -69.5 -73t-88.5 -28t-117 33q-5 2 -24 11t-25 11t-19.5 7t-24 6.5t-21.5 1.5q-54 0 -111 -57z" />
<glyph unicode="&#xf6;" horiz-adv-x="1019" d="M123 342v313q0 165 93.5 264t293.5 99t293.5 -99t93.5 -264v-313q0 -165 -93.5 -263.5t-293.5 -98.5t-293.5 98.5t-93.5 263.5zM242 338q0 -127 65 -189.5t203 -62.5t203 62.5t65 189.5v321q0 127 -65 189.5t-203 62.5t-203 -62.5t-65 -189.5v-321zM272 1143v135h127 v-135h-127zM621 1143v135h127v-135h-127z" />
<glyph unicode="&#xf7;" horiz-adv-x="1159" d="M164 444v107h831v-107h-831zM516 90v156h127v-156h-127zM516 750v155h127v-155h-127z" />
<glyph unicode="&#xf8;" horiz-adv-x="1019" d="M123 -59l86 143q-86 93 -86 258v313q0 165 93.5 264t293.5 99q138 0 233 -53l82 135l72 -45l-88 -144q88 -91 88 -256v-313q0 -165 -93.5 -263.5t-293.5 -98.5q-142 0 -234 53l-81 -135zM242 338q0 -90 30 -148l414 680q-65 41 -176 41q-138 0 -203 -62.5t-65 -189.5 v-321zM334 127q61 -41 176 -41q138 0 203 62.5t65 189.5v321q0 92 -33 148z" />
<glyph unicode="&#xf9;" d="M164 205v792h119v-807q0 -54 27 -77t81 -23q64 0 178 33.5t205 81.5v792h119v-997h-105l-8 90q-89 -43 -205 -76.5t-200 -33.5q-112 0 -161.5 58t-49.5 167zM305 1288l60 90q119 -84 268 -176l-55 -84q-163 91 -273 170z" />
<glyph unicode="&#xfa;" d="M164 205v792h119v-807q0 -54 27 -77t81 -23q64 0 178 33.5t205 81.5v792h119v-997h-105l-8 90q-89 -43 -205 -76.5t-200 -33.5q-112 0 -161.5 58t-49.5 167zM428 1202q149 92 268 176l60 -90q-110 -79 -273 -170z" />
<glyph unicode="&#xfb;" d="M164 205v792h119v-807q0 -54 27 -77t81 -23q64 0 178 33.5t205 81.5v792h119v-997h-105l-8 90q-89 -43 -205 -76.5t-200 -33.5q-112 0 -161.5 58t-49.5 167zM285 1200q122 73 264 172q163 -115 262 -172l-43 -80q-40 21 -76.5 42t-79 47t-63.5 38q-156 -94 -219 -127z " />
<glyph unicode="&#xfc;" d="M164 205v792h119v-807q0 -54 27 -77t81 -23q64 0 178 33.5t205 81.5v792h119v-997h-105l-8 90q-89 -43 -205 -76.5t-200 -33.5q-112 0 -161.5 58t-49.5 167zM303 1143v135h127v-135h-127zM651 1143v135h127v-135h-127z" />
<glyph unicode="&#xfd;" horiz-adv-x="909" d="M31 997h121l307 -913l309 913h121l-338 -997l-148 -403h-116l149 403h-67zM365 1202q149 92 268 176l59 -90q-114 -82 -272 -170z" />
<glyph unicode="&#xfe;" horiz-adv-x="1060" d="M184 -428v1833l119 16v-516q72 55 159.5 84t172.5 29q283 0 283 -277v-454q0 -307 -308 -307q-147 0 -307 32v-415zM303 121q166 -35 311 -35q97 0 141 49t44 152v454q0 90 -37 130t-135 40q-167 0 -324 -127v-663z" />
<glyph unicode="&#xff;" horiz-adv-x="909" d="M31 997h121l307 -913l309 913h121l-338 -997l-148 -403h-116l149 403h-67zM223 1143v135h127v-135h-127zM571 1143v135h127v-135h-127z" />
<glyph unicode="&#x152;" horiz-adv-x="1832" d="M154 406v552q0 90 26 162t81 128t148.5 86t221.5 30h1057v-109h-648v-485h602v-108h-602v-553h650v-109h-1059q-128 0 -221.5 30t-148.5 86t-81 128t-26 162zM274 410q0 -151 83 -226t274 -75h289v1146h-289q-191 0 -274 -75t-83 -226v-544z" />
<glyph unicode="&#x153;" horiz-adv-x="1636" d="M123 342v313q0 165 93.5 264t293.5 99q217 0 326 -148q90 148 315 148q102 0 174.5 -27t112.5 -78t57.5 -114t17.5 -144v-192h-616v-137q0 -132 57.5 -187t194.5 -55q67 0 163 12t161 29l20 -96q-162 -49 -344 -49q-119 0 -199.5 38t-118.5 105q-49 -70 -124.5 -106.5 t-196.5 -36.5q-200 0 -293.5 98.5t-93.5 263.5zM242 338q0 -127 65 -189.5t203 -62.5q268 0 268 240v333q0 127 -65 189.5t-203 62.5t-203 -62.5t-65 -189.5v-321zM897 569h500v90q0 131 -55.5 193.5t-190.5 62.5q-136 0 -195 -63t-59 -193v-90z" />
<glyph unicode="&#x178;" horiz-adv-x="1112" d="M31 1364h125l399 -823l401 823h125l-465 -944v-420h-120v420zM311 1503v123h135v-123h-135zM664 1503v123h135v-123h-135z" />
<glyph unicode="&#x2c6;" horiz-adv-x="813" d="M143 1200q129 76 265 172q163 -115 262 -172l-43 -80q-40 21 -76.5 42t-79 47t-63.5 38q-149 -90 -220 -127z" />
<glyph unicode="&#x2dc;" horiz-adv-x="839" d="M143 1202q29 43 74.5 72t93.5 29q37 0 111 -33q81 -37 117 -37q53 0 98 51l59 -53q-28 -45 -69 -73t-88 -28t-117 33q-6 3 -21 9.5t-20.5 9t-17.5 7t-19.5 6.5t-17.5 3.5t-19 1.5q-53 0 -110 -57z" />
<glyph unicode="&#x2000;" horiz-adv-x="857" />
<glyph unicode="&#x2001;" horiz-adv-x="1714" />
<glyph unicode="&#x2002;" horiz-adv-x="857" />
<glyph unicode="&#x2003;" horiz-adv-x="1714" />
<glyph unicode="&#x2004;" horiz-adv-x="571" />
<glyph unicode="&#x2005;" horiz-adv-x="428" />
<glyph unicode="&#x2006;" horiz-adv-x="285" />
<glyph unicode="&#x2007;" horiz-adv-x="285" />
<glyph unicode="&#x2008;" horiz-adv-x="214" />
<glyph unicode="&#x2009;" horiz-adv-x="342" />
<glyph unicode="&#x200a;" horiz-adv-x="95" />
<glyph unicode="&#x2010;" horiz-adv-x="741" d="M133 524v101h475v-101h-475z" />
<glyph unicode="&#x2011;" horiz-adv-x="741" d="M133 524v101h475v-101h-475z" />
<glyph unicode="&#x2012;" horiz-adv-x="741" d="M133 524v101h475v-101h-475z" />
<glyph unicode="&#x2013;" horiz-adv-x="1015" d="M154 524v101h708v-101h-708z" />
<glyph unicode="&#x2014;" horiz-adv-x="1282" d="M154 524v101h974v-101h-974z" />
<glyph unicode="&#x2018;" horiz-adv-x="493" d="M184 1030v176l99 221l57 -24l-74 -197h45v-176h-127z" />
<glyph unicode="&#x2019;" horiz-adv-x="452" d="M164 1032l74 197h-45v176h126v-176l-98 -221z" />
<glyph unicode="&#x201a;" horiz-adv-x="493" d="M154 -197l73 197h-45v176h127v-176l-98 -221z" />
<glyph unicode="&#x201c;" horiz-adv-x="811" d="M184 1030v176l99 221l57 -24l-74 -197h45v-176h-127zM502 1030v176l98 221l57 -24l-73 -197h45v-176h-127z" />
<glyph unicode="&#x201d;" horiz-adv-x="811" d="M154 1032l73 197h-45v176h127v-176l-98 -221zM471 1032l74 197h-45v176h127v-176l-99 -221z" />
<glyph unicode="&#x201e;" horiz-adv-x="811" d="M154 -197l73 197h-45v176h127v-176l-98 -221zM471 -197l74 197h-45v176h127v-176l-99 -221z" />
<glyph unicode="&#x2022;" horiz-adv-x="782" d="M154 662q0 98 69.5 167.5t167.5 69.5t168 -69.5t70 -167.5t-70 -168t-168 -70t-167.5 70t-69.5 168z" />
<glyph unicode="&#x2026;" horiz-adv-x="1445" d="M184 0v176h127v-176h-127zM659 0v176h127v-176h-127zM1135 0v176h127v-176h-127z" />
<glyph unicode="&#x202f;" horiz-adv-x="342" />
<glyph unicode="&#x2039;" horiz-adv-x="598" d="M113 500l262 395l90 -61l-221 -334l221 -334l-90 -62z" />
<glyph unicode="&#x203a;" horiz-adv-x="598" d="M133 166l221 334l-221 334l90 61l262 -395l-262 -396z" />
<glyph unicode="&#x205f;" horiz-adv-x="428" />
<glyph unicode="&#x20ac;" horiz-adv-x="1132" d="M82 442v95h186v260h-186v94h186v57q0 197 106.5 296t346.5 99q155 0 299 -30l-14 -105q-132 27 -275 27q-187 0 -264.5 -65t-77.5 -224v-55h428v-94h-428v-260h428v-95h-428v-65q0 -159 77.5 -224t264.5 -65q120 0 275 27l14 -105q-153 -30 -299 -30q-240 0 -346.5 99 t-106.5 296v67h-186z" />
<glyph unicode="&#x2122;" horiz-adv-x="1069" d="M113 1303v61h323v-61h-129v-361h-65v361h-129zM528 942l11 422h79l119 -322l121 322h74l14 -422h-67l-5 297l-96 -246h-82l-94 248l-6 -299h-68z" />
<glyph unicode="&#x25fc;" horiz-adv-x="993" d="M0 0v993h993v-993h-993z" />
</font>
</defs>
</svg>
