<?xml version="1.0" standalone="no"?>
<!DOCTYPE svg PUBLIC "-//W3C//DTD SVG 1.1//EN" "http://www.w3.org/Graphics/SVG/1.1/DTD/svg11.dtd" >
<svg xmlns="http://www.w3.org/2000/svg" xmlns:xlink="http://www.w3.org/1999/xlink" version="1.1">
<metadata></metadata>
<defs>
<font id="klavika_arrowsbold" horiz-adv-x="704" >
<font-face units-per-em="2048" ascent="1638" descent="-410" />
<missing-glyph horiz-adv-x="430" />
<glyph unicode="&#xfb01;" d="M205 657v340h295v-340h-295z" />
<glyph unicode="&#xfb02;" d="M205 657v340h295v-340h-295z" />
<glyph horiz-adv-x="0" />
<glyph horiz-adv-x="682" />
<glyph unicode=" "  horiz-adv-x="430" />
<glyph unicode="&#x09;" horiz-adv-x="430" />
<glyph unicode="&#xa0;" horiz-adv-x="430" />
<glyph unicode="!" horiz-adv-x="1568" d="M82 682q0 114 35.5 221t100.5 193.5t151.5 151.5t193.5 100.5t221 35.5q190 0 352 -94t256.5 -256t94.5 -352t-94.5 -352t-256.5 -256t-352 -94q-114 0 -221 35.5t-193.5 100.5t-151.5 151.5t-100.5 193.5t-35.5 221zM395 436l144 -143l245 246l246 -246l144 143 l-246 246l246 246l-146 145l-244 -246l-243 246l-146 -145l244 -246z" />
<glyph unicode="&#x22;" d="M205 657v340h295v-340h-295z" />
<glyph unicode="#" horiz-adv-x="1568" d="M82 682q0 114 35.5 221t100.5 193.5t151.5 151.5t193.5 100.5t221 35.5q190 0 352 -94t256.5 -256t94.5 -352t-94.5 -352t-256.5 -256t-352 -94q-114 0 -221 35.5t-193.5 100.5t-151.5 151.5t-100.5 193.5t-35.5 221zM336 582h348v-349h203v349h348v202h-348v349h-203 v-349h-348v-202z" />
<glyph unicode="$" horiz-adv-x="1568" d="M82 682q0 114 35.5 221t100.5 193.5t151.5 151.5t193.5 100.5t221 35.5q190 0 352 -94t256.5 -256t94.5 -352t-94.5 -352t-256.5 -256t-352 -94q-114 0 -221 35.5t-193.5 100.5t-151.5 151.5t-100.5 193.5t-35.5 221zM336 582h348v202h-348v-202zM684 233h203v349h-203 v-349zM684 784h203v349h-203v-349zM887 582h348v202h-348v-202z" />
<glyph unicode="%" d="M205 657v340h295v-340h-295z" />
<glyph unicode="&#x26;" d="M205 657v340h295v-340h-295z" />
<glyph unicode="'" d="M205 657v340h295v-340h-295z" />
<glyph unicode="(" horiz-adv-x="1671" d="M154 0v1364h1364v-1364h-1364z" />
<glyph unicode=")" horiz-adv-x="1671" d="M154 0v1364h1364v-1364h-1364zM272 119h1127v1126h-1127v-1126z" />
<glyph unicode="*" d="M205 657v340h295v-340h-295z" />
<glyph unicode="+" d="M205 657v340h295v-340h-295z" />
<glyph unicode="," d="M205 657v340h295v-340h-295z" />
<glyph unicode="-" d="M205 657v340h295v-340h-295z" />
<glyph unicode="." d="M205 657v340h295v-340h-295z" />
<glyph unicode="/" d="M205 657v340h295v-340h-295z" />
<glyph unicode="0" horiz-adv-x="1609" d="M51 682l1405 702v-1404z" />
<glyph unicode="1" horiz-adv-x="1609" d="M154 -20v1404l1405 -702z" />
<glyph unicode="2" horiz-adv-x="1609" d="M51 682l1405 702v-1404zM317 682l1020 -510v1020z" />
<glyph unicode="3" horiz-adv-x="1609" d="M154 -20v1404l1405 -702zM272 172l1020 510l-1020 510v-1020z" />
<glyph unicode="4" horiz-adv-x="1245" d="M51 498l1041 520v-1041z" />
<glyph unicode="5" horiz-adv-x="1245" d="M154 -23v1041l1040 -520z" />
<glyph unicode="6" horiz-adv-x="1245" d="M51 498l1041 520v-1041zM305 498l668 -332v661z" />
<glyph unicode="7" horiz-adv-x="1245" d="M154 -23v1041l1040 -520zM272 166l668 332l-668 329v-661z" />
<glyph unicode="8" horiz-adv-x="1671" d="M154 0v1364h1364v-1364h-1364zM272 119h1053l-1053 1055v-1055zM348 1245l1051 -1048v1048h-1051z" />
<glyph unicode="9" horiz-adv-x="1304" d="M154 0v997h997v-997h-997zM268 115h695l-695 694v-694zM338 883l698 -699v699h-698z" />
<glyph unicode=":" d="M205 657v340h295v-340h-295z" />
<glyph unicode=";" d="M205 657v340h295v-340h-295z" />
<glyph unicode="&#x3c;" horiz-adv-x="1304" d="M154 0v997h997v-997h-997z" />
<glyph unicode="=" d="M205 657v340h295v-340h-295z" />
<glyph unicode="&#x3e;" horiz-adv-x="1304" d="M154 0v997h997v-997h-997zM268 115h768v768h-768v-768z" />
<glyph unicode="?" d="M205 657v340h295v-340h-295z" />
<glyph unicode="@" horiz-adv-x="1568" d="M82 682q0 114 35.5 221t100.5 193.5t151.5 151.5t193.5 100.5t221 35.5q190 0 352 -94t256.5 -256t94.5 -352t-94.5 -352t-256.5 -256t-352 -94q-114 0 -221 35.5t-193.5 100.5t-151.5 151.5t-100.5 193.5t-35.5 221zM395 436l144 -143l245 246l-145 143zM395 928 l244 -246l145 145l-243 246zM784 539l246 -246l144 143l-246 246zM784 827l144 -145l246 246l-146 145z" />
<glyph unicode="A" horiz-adv-x="1869" d="M82 682l682 682l151 -154l-428 -417h1260v-222h-1260l428 -417l-151 -154z" />
<glyph unicode="B" horiz-adv-x="1869" d="M123 571v222h1259l-428 417l152 154l682 -682l-682 -682l-152 154l428 417h-1259z" />
<glyph unicode="C" horiz-adv-x="1542" d="M174 399v965h965v-209h-600l891 -891l-156 -155l-891 890v-600h-209z" />
<glyph unicode="D" horiz-adv-x="1542" d="M113 264l891 891h-601v209h965v-965h-209v600l-891 -890z" />
<glyph unicode="E" horiz-adv-x="1542" d="M174 0v965h209v-600l891 890l156 -155l-891 -891h600v-209h-965z" />
<glyph unicode="F" horiz-adv-x="1542" d="M113 1100l155 155l891 -890v600h209v-965h-965v209h601z" />
<glyph unicode="G" horiz-adv-x="1548" d="M92 702l682 682l682 -682l-153 -151l-418 428v-1382h-221v1382l-418 -428z" />
<glyph unicode="H" horiz-adv-x="1548" d="M92 279l154 151l418 -428v1362h221v-1362l418 428l153 -151l-682 -682z" />
<glyph unicode="I" horiz-adv-x="1910" d="M82 682l682 682l151 -154l-528 -528l528 -528l-151 -154zM735 567v230h1053v-230h-1053z" />
<glyph unicode="J" horiz-adv-x="1910" d="M123 567v230h1053v-230h-1053zM995 154l529 528l-529 528l152 154l682 -682l-682 -682z" />
<glyph unicode="K" horiz-adv-x="1572" d="M174 401v963h965v-215h-750v-748h-215zM555 821l162 162l743 -743l-162 -162z" />
<glyph unicode="L" horiz-adv-x="1572" d="M113 240l743 743l162 -162l-744 -743zM436 1149v215h963v-965h-215v750h-748z" />
<glyph unicode="M" horiz-adv-x="1572" d="M174 0v963h215v-748h750v-215h-965zM555 543l743 743l162 -162l-743 -743z" />
<glyph unicode="N" horiz-adv-x="1572" d="M113 1124l161 162l744 -743l-162 -162zM436 0v215h748v750h215v-965h-963z" />
<glyph unicode="O" horiz-adv-x="1548" d="M92 702l682 682l682 -682l-153 -151l-529 528l-528 -528zM659 -403v1134h230v-1134h-230z" />
<glyph unicode="P" horiz-adv-x="1548" d="M92 279l154 151l528 -528l529 528l153 -151l-682 -682zM659 250v1114h230v-1114h-230z" />
<glyph unicode="Q" horiz-adv-x="1568" d="M82 682q0 114 35.5 221t100.5 193.5t151.5 151.5t193.5 100.5t221 35.5q190 0 352 -94t256.5 -256t94.5 -352t-94.5 -352t-256.5 -256t-352 -94q-114 0 -221 35.5t-193.5 100.5t-151.5 151.5t-100.5 193.5t-35.5 221zM319 682l459 -457l135 140l-227 219h557v198h-557 l227 219l-135 140z" />
<glyph unicode="R" horiz-adv-x="1568" d="M82 682q0 114 35.5 221t100.5 193.5t151.5 151.5t193.5 100.5t221 35.5q190 0 352 -94t256.5 -256t94.5 -352t-94.5 -352t-256.5 -256t-352 -94q-114 0 -221 35.5t-193.5 100.5t-151.5 151.5t-100.5 193.5t-35.5 221zM326 584h557l-228 -219l136 -140l458 457l-458 459 l-136 -140l228 -219h-557v-198z" />
<glyph unicode="S" horiz-adv-x="1568" d="M82 682q0 114 35.5 221t100.5 193.5t151.5 151.5t193.5 100.5t221 35.5q190 0 352 -94t256.5 -256t94.5 -352t-94.5 -352t-256.5 -256t-352 -94q-114 0 -221 35.5t-193.5 100.5t-151.5 151.5t-100.5 193.5t-35.5 221zM457 369h188v315l395 -393l140 139l-394 389h318v193 h-647v-643z" />
<glyph unicode="T" horiz-adv-x="1568" d="M82 682q0 114 35.5 221t100.5 193.5t151.5 151.5t193.5 100.5t221 35.5q190 0 352 -94t256.5 -256t94.5 -352t-94.5 -352t-256.5 -256t-352 -94q-114 0 -221 35.5t-193.5 100.5t-151.5 151.5t-100.5 193.5t-35.5 221zM389 430l139 -139l396 393v-315h188v643h-647v-193 h317z" />
<glyph unicode="U" horiz-adv-x="1568" d="M82 682q0 114 35.5 221t100.5 193.5t151.5 151.5t193.5 100.5t221 35.5q190 0 352 -94t256.5 -256t94.5 -352t-94.5 -352t-256.5 -256t-352 -94q-114 0 -221 35.5t-193.5 100.5t-151.5 151.5t-100.5 193.5t-35.5 221zM457 352h647v193h-318l394 389l-140 139l-395 -393 v315h-188v-643z" />
<glyph unicode="V" horiz-adv-x="1568" d="M82 682q0 114 35.5 221t100.5 193.5t151.5 151.5t193.5 100.5t221 35.5q190 0 352 -94t256.5 -256t94.5 -352t-94.5 -352t-256.5 -256t-352 -94q-114 0 -221 35.5t-193.5 100.5t-151.5 151.5t-100.5 193.5t-35.5 221zM389 934l393 -389h-317v-193h647v643h-188v-315 l-396 393z" />
<glyph unicode="W" horiz-adv-x="1568" d="M82 682q0 114 35.5 221t100.5 193.5t151.5 151.5t193.5 100.5t221 35.5q190 0 352 -94t256.5 -256t94.5 -352t-94.5 -352t-256.5 -256t-352 -94q-114 0 -221 35.5t-193.5 100.5t-151.5 151.5t-100.5 193.5t-35.5 221zM328 711l139 -136l219 228v-557h199v557l219 -228 l139 136l-459 458z" />
<glyph unicode="X" horiz-adv-x="1568" d="M82 682q0 114 35.5 221t100.5 193.5t151.5 151.5t193.5 100.5t221 35.5q190 0 352 -94t256.5 -256t94.5 -352t-94.5 -352t-256.5 -256t-352 -94q-114 0 -221 35.5t-193.5 100.5t-151.5 151.5t-100.5 193.5t-35.5 221zM328 653l456 -458l459 458l-139 135l-219 -227v557 h-199v-557l-219 227z" />
<glyph unicode="Y" horiz-adv-x="1671" d="M154 0v1364h1364v-1364h-1364zM272 119h1053l-1053 1055v-1055zM348 1245l1051 -1048v1048h-1051z" />
<glyph unicode="Z" horiz-adv-x="1304" d="M154 0v997h997v-997h-997zM268 115h695l-695 694v-694zM338 883l698 -699v699h-698z" />
<glyph unicode="[" horiz-adv-x="1568" d="M92 0l692 1384l693 -1384h-1385z" />
<glyph unicode="\" horiz-adv-x="1202" d="M92 0l508 1018l510 -1018h-1018z" />
<glyph unicode="]" horiz-adv-x="1568" d="M92 1364h1385l-693 -1384z" />
<glyph unicode="^" horiz-adv-x="1202" d="M92 997h1018l-510 -1017z" />
<glyph unicode="_" horiz-adv-x="1202" d="M92 0l508 1018l510 -1018h-1018zM279 117h647l-326 653z" />
<glyph unicode="`" horiz-adv-x="1202" d="M92 997h1018l-510 -1017zM279 881l321 -654l326 654h-647z" />
<glyph unicode="a" horiz-adv-x="1423" d="M61 682l506 506l152 -154l-252 -241h833v-222h-833l252 -241l-152 -154z" />
<glyph unicode="b" horiz-adv-x="1423" d="M123 571v222h833l-251 241l151 154l506 -506l-506 -506l-151 154l251 241h-833z" />
<glyph unicode="c" horiz-adv-x="1220" d="M154 649v715h716v-209h-350l588 -590l-156 -155l-590 587v-348h-208z" />
<glyph unicode="d" horiz-adv-x="1220" d="M113 565l587 590h-350v209h717v-715h-209v348l-590 -587z" />
<glyph unicode="e" horiz-adv-x="1220" d="M154 0v715h208v-348l590 587l156 -155l-588 -590h350v-209h-716z" />
<glyph unicode="f" horiz-adv-x="1220" d="M113 799l155 155l590 -587v348h209v-715h-717v209h350z" />
<glyph unicode="g" horiz-adv-x="1196" d="M92 879l506 505l506 -505l-154 -152l-241 252v-979h-222v979l-241 -252z" />
<glyph unicode="h" horiz-adv-x="1196" d="M92 485l154 152l241 -252v979h222v-979l241 252l154 -152l-506 -505z" />
<glyph unicode="i" horiz-adv-x="1462" d="M61 682l506 506l152 -154l-352 -352l352 -352l-152 -154zM598 567v230h741v-230h-741z" />
<glyph unicode="j" horiz-adv-x="1462" d="M123 567v230h741v-230h-741zM743 330l353 352l-353 352l152 154l506 -506l-506 -506z" />
<glyph unicode="k" horiz-adv-x="1251" d="M154 647v717h714v-217h-497v-500h-217zM453 903l161 162l525 -524l-162 -162z" />
<glyph unicode="l" horiz-adv-x="1251" d="M113 541l524 524l162 -162l-525 -524zM383 1147v217h715v-717h-217v500h-498z" />
<glyph unicode="m" horiz-adv-x="1251" d="M154 0v717h217v-500h497v-217h-714zM453 461l524 524l162 -162l-525 -524z" />
<glyph unicode="n" horiz-adv-x="1251" d="M113 823l161 162l525 -524l-162 -162zM383 0v217h498v500h217v-717h-715z" />
<glyph unicode="o" horiz-adv-x="1196" d="M92 879l506 505l506 -505l-154 -152l-352 352l-352 -352zM483 0v848h230v-848h-230z" />
<glyph unicode="p" horiz-adv-x="1196" d="M92 485l154 152l352 -352l352 352l154 -152l-506 -505zM483 516v848h230v-848h-230z" />
<glyph unicode="q" horiz-adv-x="1568" d="M82 682q0 114 35.5 221t100.5 193.5t151.5 151.5t193.5 100.5t221 35.5q190 0 352 -94t256.5 -256t94.5 -352t-94.5 -352t-256.5 -256t-352 -94q-114 0 -221 35.5t-193.5 100.5t-151.5 151.5t-100.5 193.5t-35.5 221zM315 682l459 -459l137 137l-319 322l319 317 l-137 140zM842 580h420v204h-420v-204z" />
<glyph unicode="r" horiz-adv-x="1568" d="M82 682q0 114 35.5 221t100.5 193.5t151.5 151.5t193.5 100.5t221 35.5q190 0 352 -94t256.5 -256t94.5 -352t-94.5 -352t-256.5 -256t-352 -94q-114 0 -221 35.5t-193.5 100.5t-151.5 151.5t-100.5 193.5t-35.5 221zM307 580h420v204h-420v-204zM657 360l138 -137 l458 459l-458 457l-138 -140l320 -317z" />
<glyph unicode="s" horiz-adv-x="1568" d="M82 682q0 114 35.5 221t100.5 193.5t151.5 151.5t193.5 100.5t221 35.5q190 0 352 -94t256.5 -256t94.5 -352t-94.5 -352t-256.5 -256t-352 -94q-114 0 -221 35.5t-193.5 100.5t-151.5 151.5t-100.5 193.5t-35.5 221zM473 365h197v452h448l2 197h-647v-649zM772 569 l297 -297l145 146l-296 297z" />
<glyph unicode="t" horiz-adv-x="1568" d="M82 682q0 114 35.5 221t100.5 193.5t151.5 151.5t193.5 100.5t221 35.5q190 0 352 -94t256.5 -256t94.5 -352t-94.5 -352t-256.5 -256t-352 -94q-114 0 -221 35.5t-193.5 100.5t-151.5 151.5t-100.5 193.5t-35.5 221zM354 418l146 -146l297 297l-146 146zM449 1014 l2 -197h448v-452h197v649h-647z" />
<glyph unicode="u" horiz-adv-x="1568" d="M82 682q0 114 35.5 221t100.5 193.5t151.5 151.5t193.5 100.5t221 35.5q190 0 352 -94t256.5 -256t94.5 -352t-94.5 -352t-256.5 -256t-352 -94q-114 0 -221 35.5t-193.5 100.5t-151.5 151.5t-100.5 193.5t-35.5 221zM473 350h647l-2 197h-448v452h-197v-649zM772 795 l146 -146l296 297l-145 146z" />
<glyph unicode="v" horiz-adv-x="1568" d="M82 682q0 114 35.5 221t100.5 193.5t151.5 151.5t193.5 100.5t221 35.5q190 0 352 -94t256.5 -256t94.5 -352t-94.5 -352t-256.5 -256t-352 -94q-114 0 -221 35.5t-193.5 100.5t-151.5 151.5t-100.5 193.5t-35.5 221zM354 946l297 -297l146 146l-297 297zM449 350h647 v649h-197v-452h-448z" />
<glyph unicode="w" horiz-adv-x="1568" d="M82 682q0 114 35.5 221t100.5 193.5t151.5 151.5t193.5 100.5t221 35.5q190 0 352 -94t256.5 -256t94.5 -352t-94.5 -352t-256.5 -256t-352 -94q-114 0 -221 35.5t-193.5 100.5t-151.5 151.5t-100.5 193.5t-35.5 221zM326 711l137 -138l321 320l318 -320l139 138 l-457 458zM682 223h205v420h-205v-420z" />
<glyph unicode="x" horiz-adv-x="1568" d="M82 682q0 114 35.5 221t100.5 193.5t151.5 151.5t193.5 100.5t221 35.5q190 0 352 -94t256.5 -256t94.5 -352t-94.5 -352t-256.5 -256t-352 -94q-114 0 -221 35.5t-193.5 100.5t-151.5 151.5t-100.5 193.5t-35.5 221zM326 653l458 -458l457 458l-139 138l-318 -320 l-321 320zM682 721h205v420h-205v-420z" />
<glyph unicode="y" horiz-adv-x="1671" d="M154 0v1364h1364v-1364h-1364zM272 119h1053l-1053 1055v-1055zM348 1245l1051 -1048v1048h-1051z" />
<glyph unicode="z" horiz-adv-x="1304" d="M154 0v997h997v-997h-997zM268 115h695l-695 694v-694zM338 883l698 -699v699h-698z" />
<glyph unicode="{" horiz-adv-x="1568" d="M92 0l692 1384l693 -1384h-1385zM283 117h1003l-502 1005z" />
<glyph unicode="|" d="M205 657v340h295v-340h-295z" />
<glyph unicode="}" horiz-adv-x="1568" d="M92 1364h1385l-693 -1384zM283 1247l501 -1005l502 1005h-1003z" />
<glyph unicode="~" d="M205 657v340h295v-340h-295z" />
<glyph unicode="&#xa1;" d="M205 657v340h295v-340h-295z" />
<glyph unicode="&#xa2;" d="M205 657v340h295v-340h-295z" />
<glyph unicode="&#xa3;" d="M205 657v340h295v-340h-295z" />
<glyph unicode="&#xa4;" horiz-adv-x="1196" d="M113 305l139 139q-19 49 -19 105v274q0 53 19 105l-139 139l174 174l157 -160q68 19 154 19q84 0 152 -19l159 160l174 -174l-139 -139q21 -50 21 -105v-274q0 -57 -21 -107l139 -137l-174 -174l-159 158q-73 -17 -152 -17q-81 0 -154 17l-157 -158zM483 582 q0 -53 29 -69.5t86 -16.5t87 16.5t30 69.5v209q0 53 -30 69.5t-87 16.5t-86 -16.5t-29 -69.5v-209z" />
<glyph unicode="&#xa5;" d="M205 657v340h295v-340h-295z" />
<glyph unicode="&#xa6;" d="M205 657v340h295v-340h-295z" />
<glyph unicode="&#xa7;" d="M205 657v340h295v-340h-295z" />
<glyph unicode="&#xa8;" d="M205 657v340h295v-340h-295z" />
<glyph unicode="&#xa9;" d="M205 657v340h295v-340h-295z" />
<glyph unicode="&#xaa;" d="M205 657v340h295v-340h-295z" />
<glyph unicode="&#xab;" d="M205 657v340h295v-340h-295z" />
<glyph unicode="&#xac;" d="M205 657v340h295v-340h-295z" />
<glyph unicode="&#xad;" d="M205 657v340h295v-340h-295z" />
<glyph unicode="&#xae;" d="M205 657v340h295v-340h-295z" />
<glyph unicode="&#xaf;" d="M205 657v340h295v-340h-295z" />
<glyph unicode="&#xb0;" d="M205 657v340h295v-340h-295z" />
<glyph unicode="&#xb1;" d="M205 657v340h295v-340h-295z" />
<glyph unicode="&#xb2;" d="M205 657v340h295v-340h-295z" />
<glyph unicode="&#xb3;" d="M205 657v340h295v-340h-295z" />
<glyph unicode="&#xb4;" d="M205 657v340h295v-340h-295z" />
<glyph unicode="&#xb5;" d="M205 657v340h295v-340h-295z" />
<glyph unicode="&#xb6;" d="M205 657v340h295v-340h-295z" />
<glyph unicode="&#xb7;" d="M205 657v340h295v-340h-295z" />
<glyph unicode="&#xb8;" d="M205 657v340h295v-340h-295z" />
<glyph unicode="&#xb9;" d="M205 657v340h295v-340h-295z" />
<glyph unicode="&#xba;" d="M205 657v340h295v-340h-295z" />
<glyph unicode="&#xbb;" d="M205 657v340h295v-340h-295z" />
<glyph unicode="&#xbc;" d="M205 657v340h295v-340h-295z" />
<glyph unicode="&#xbd;" d="M205 657v340h295v-340h-295z" />
<glyph unicode="&#xbe;" d="M205 657v340h295v-340h-295z" />
<glyph unicode="&#xbf;" d="M205 657v340h295v-340h-295z" />
<glyph unicode="&#xc0;" d="M205 657v340h295v-340h-295z" />
<glyph unicode="&#xc1;" d="M205 657v340h295v-340h-295z" />
<glyph unicode="&#xc2;" d="M205 657v340h295v-340h-295z" />
<glyph unicode="&#xc3;" d="M205 657v340h295v-340h-295z" />
<glyph unicode="&#xc4;" d="M205 657v340h295v-340h-295z" />
<glyph unicode="&#xc5;" d="M205 657v340h295v-340h-295z" />
<glyph unicode="&#xc6;" d="M205 657v340h295v-340h-295z" />
<glyph unicode="&#xc7;" d="M205 657v340h295v-340h-295z" />
<glyph unicode="&#xc8;" d="M205 657v340h295v-340h-295z" />
<glyph unicode="&#xc9;" d="M205 657v340h295v-340h-295z" />
<glyph unicode="&#xca;" d="M205 657v340h295v-340h-295z" />
<glyph unicode="&#xcb;" d="M205 657v340h295v-340h-295z" />
<glyph unicode="&#xcc;" d="M205 657v340h295v-340h-295z" />
<glyph unicode="&#xcd;" d="M205 657v340h295v-340h-295z" />
<glyph unicode="&#xce;" d="M205 657v340h295v-340h-295z" />
<glyph unicode="&#xcf;" d="M205 657v340h295v-340h-295z" />
<glyph unicode="&#xd0;" d="M205 657v340h295v-340h-295z" />
<glyph unicode="&#xd1;" d="M205 657v340h295v-340h-295z" />
<glyph unicode="&#xd2;" d="M205 657v340h295v-340h-295z" />
<glyph unicode="&#xd3;" d="M205 657v340h295v-340h-295z" />
<glyph unicode="&#xd4;" d="M205 657v340h295v-340h-295z" />
<glyph unicode="&#xd5;" d="M205 657v340h295v-340h-295z" />
<glyph unicode="&#xd6;" d="M205 657v340h295v-340h-295z" />
<glyph unicode="&#xd7;" d="M205 657v340h295v-340h-295z" />
<glyph unicode="&#xd8;" d="M205 657v340h295v-340h-295z" />
<glyph unicode="&#xd9;" d="M205 657v340h295v-340h-295z" />
<glyph unicode="&#xda;" d="M205 657v340h295v-340h-295z" />
<glyph unicode="&#xdb;" d="M205 657v340h295v-340h-295z" />
<glyph unicode="&#xdc;" d="M205 657v340h295v-340h-295z" />
<glyph unicode="&#xdd;" d="M205 657v340h295v-340h-295z" />
<glyph unicode="&#xde;" d="M205 657v340h295v-340h-295z" />
<glyph unicode="&#xdf;" d="M205 657v340h295v-340h-295z" />
<glyph unicode="&#xe0;" d="M205 657v340h295v-340h-295z" />
<glyph unicode="&#xe1;" d="M205 657v340h295v-340h-295z" />
<glyph unicode="&#xe2;" d="M205 657v340h295v-340h-295z" />
<glyph unicode="&#xe3;" d="M205 657v340h295v-340h-295z" />
<glyph unicode="&#xe4;" d="M205 657v340h295v-340h-295z" />
<glyph unicode="&#xe5;" d="M205 657v340h295v-340h-295z" />
<glyph unicode="&#xe6;" d="M205 657v340h295v-340h-295z" />
<glyph unicode="&#xe7;" d="M205 657v340h295v-340h-295z" />
<glyph unicode="&#xe8;" d="M205 657v340h295v-340h-295z" />
<glyph unicode="&#xe9;" d="M205 657v340h295v-340h-295z" />
<glyph unicode="&#xea;" d="M205 657v340h295v-340h-295z" />
<glyph unicode="&#xeb;" d="M205 657v340h295v-340h-295z" />
<glyph unicode="&#xec;" d="M205 657v340h295v-340h-295z" />
<glyph unicode="&#xed;" d="M205 657v340h295v-340h-295z" />
<glyph unicode="&#xee;" d="M205 657v340h295v-340h-295z" />
<glyph unicode="&#xef;" d="M205 657v340h295v-340h-295z" />
<glyph unicode="&#xf0;" d="M205 657v340h295v-340h-295z" />
<glyph unicode="&#xf1;" d="M205 657v340h295v-340h-295z" />
<glyph unicode="&#xf2;" d="M205 657v340h295v-340h-295z" />
<glyph unicode="&#xf3;" d="M205 657v340h295v-340h-295z" />
<glyph unicode="&#xf4;" d="M205 657v340h295v-340h-295z" />
<glyph unicode="&#xf5;" d="M205 657v340h295v-340h-295z" />
<glyph unicode="&#xf6;" d="M205 657v340h295v-340h-295z" />
<glyph unicode="&#xf7;" d="M205 657v340h295v-340h-295z" />
<glyph unicode="&#xf8;" d="M205 657v340h295v-340h-295z" />
<glyph unicode="&#xf9;" d="M205 657v340h295v-340h-295z" />
<glyph unicode="&#xfa;" d="M205 657v340h295v-340h-295z" />
<glyph unicode="&#xfb;" d="M205 657v340h295v-340h-295z" />
<glyph unicode="&#xfc;" d="M205 657v340h295v-340h-295z" />
<glyph unicode="&#xfd;" d="M205 657v340h295v-340h-295z" />
<glyph unicode="&#xfe;" d="M205 657v340h295v-340h-295z" />
<glyph unicode="&#xff;" d="M205 657v340h295v-340h-295z" />
<glyph unicode="&#x152;" d="M205 657v340h295v-340h-295z" />
<glyph unicode="&#x153;" d="M205 657v340h295v-340h-295z" />
<glyph unicode="&#x178;" d="M205 657v340h295v-340h-295z" />
<glyph unicode="&#x2c6;" d="M205 657v340h295v-340h-295z" />
<glyph unicode="&#x2dc;" d="M205 657v340h295v-340h-295z" />
<glyph unicode="&#x2000;" horiz-adv-x="692" />
<glyph unicode="&#x2001;" horiz-adv-x="1384" />
<glyph unicode="&#x2002;" horiz-adv-x="692" />
<glyph unicode="&#x2003;" horiz-adv-x="1384" />
<glyph unicode="&#x2004;" horiz-adv-x="461" />
<glyph unicode="&#x2005;" horiz-adv-x="346" />
<glyph unicode="&#x2006;" horiz-adv-x="230" />
<glyph unicode="&#x2007;" horiz-adv-x="230" />
<glyph unicode="&#x2008;" horiz-adv-x="173" />
<glyph unicode="&#x2009;" horiz-adv-x="276" />
<glyph unicode="&#x200a;" horiz-adv-x="76" />
<glyph unicode="&#x2010;" d="M205 657v340h295v-340h-295z" />
<glyph unicode="&#x2011;" d="M205 657v340h295v-340h-295z" />
<glyph unicode="&#x2012;" d="M205 657v340h295v-340h-295z" />
<glyph unicode="&#x2013;" d="M205 657v340h295v-340h-295z" />
<glyph unicode="&#x2014;" d="M205 657v340h295v-340h-295z" />
<glyph unicode="&#x2018;" d="M205 657v340h295v-340h-295z" />
<glyph unicode="&#x2019;" d="M205 657v340h295v-340h-295z" />
<glyph unicode="&#x201a;" d="M205 657v340h295v-340h-295z" />
<glyph unicode="&#x201c;" d="M205 657v340h295v-340h-295z" />
<glyph unicode="&#x201d;" d="M205 657v340h295v-340h-295z" />
<glyph unicode="&#x201e;" d="M205 657v340h295v-340h-295z" />
<glyph unicode="&#x2022;" d="M205 657v340h295v-340h-295z" />
<glyph unicode="&#x2026;" d="M205 657v340h295v-340h-295z" />
<glyph unicode="&#x202f;" horiz-adv-x="276" />
<glyph unicode="&#x2039;" d="M205 657v340h295v-340h-295z" />
<glyph unicode="&#x203a;" d="M205 657v340h295v-340h-295z" />
<glyph unicode="&#x205f;" horiz-adv-x="346" />
<glyph unicode="&#x20ac;" d="M205 657v340h295v-340h-295z" />
<glyph unicode="&#x2122;" d="M205 657v340h295v-340h-295z" />
<glyph unicode="&#x25fc;" horiz-adv-x="1382" d="M0 0v1382h1382v-1382h-1382z" />
</font>
</defs>
</svg>
